<svg xmlns="http://www.w3.org/2000/svg">
<defs>
<font id="SaucierMarker" horiz-adv-x="614" >
  <font-face 
    font-family="Saucier Marker"
    font-weight="400"
    font-style="italic"
    font-stretch="normal"
    units-per-em="2048"
    panose-1="0 0 0 0 0 0 0 0 0 0"
    ascent="1638"
    descent="-410"
    x-height="692"
    cap-height="1354"
    bbox="-638.769 -840.909 2124.41 1745"
    underline-thickness="102"
    underline-position="-255"
    slope="-21"
    unicode-range="U+000D-FB06"
  />
<missing-glyph horiz-adv-x="1071" 
d="M213 729q-12 81 8 145q40 123 138.5 185.5t232.5 62.5q33 0 115 -12q7 0 22 -5t16 -5q2 1 43 -13q6 -2 21.5 -3t28.5 -9q3 -2 6 -6q1 -2 2 -2q9 0 14 -5t6 -10v-5q12 -1 30 -24.5t26 -41.5q4 -9 12 -25t11 -22.5t7.5 -19t6.5 -21.5t4 -23.5t2 -31.5q3 -65 -2 -105
q-9 -73 -45.5 -140t-92.5 -112q-3 11 -12 19q-5 5 -27 45q-26 47 -52 89.5t-27 43.5q-5 8 -11.5 18.5t-10 16t-3.5 6.5q-6 10 -12 22q-4 8 -17 21q11 13 22 25t17.5 19t9.5 11l37 41q1 1 3.5 2.5t4.5 3.5t3 4q10 18 36 43l29 29q33 33 39 47.5t-4 28.5q-11 20 -29 20
q-6 0 -10 4q-3 3 -19.5 1t-25.5 -7q-3 -1 -10 -8q-11 -18 -54 -61q-7 -13 -12 -17q-9 -6 -41 -53q-4 -1 -23.5 -24.5t-19.5 -26.5q4 -4 -4 -4v-2q-4 7 -9 15.5t-7 10.5q-16 24 -23 31q-10 10 -10 16q-1 2 -4 7.5t-4 7.5q-1 3 -7 9.5t-8 8.5q-26 37 -41 66q-24 40 -36 48.5
t-33 2.5q-25 -8 -35 -29q-4 -8 -8 -10q-4 -3 -7 -21t-1 -28q4 -12 6 -12q18 -24 33 -48q12 -20 16 -22q2 -1 28 -37l27 -35q4 -7 21 -31t20 -24q4 0 4 -4q0 -2 4 -10l-18 -25q-8 -8 -14 -16q-6 -10 -25 -29q-10 -10 -14 -18q-2 -3 -13.5 -18t-28.5 -38t-28 -39
q-18 -25 -18 -32l-2 -9l-5 -10l-2 -8l25 -10l-4 -6q-4 -7 -1 -8q1 0 3 1q4 0 35 31l35 35q59 51 104 106q8 10 23 25q6 -6 8 -10q4 -10 11 -18.5t12 -12.5l5 -4l13 -16q6 -15 12 -21q2 -2 10 -14q38 -55 94 -111q19 -19 29 -24q3 0 8 -5q-134 -86 -250 -86q-74 0 -127.5 41
t-109.5 117q-3 4 -6.5 14.5t-5.5 12.5q-4 4 -6.5 7.5t-3 5.5t-0.5 4v2.5t-0.5 1.5t-2.5 1q-29 6 -57 162zM864 1102q-6 15 -3 35t11 20q7 0 11 4q1 0 8 1t10 1q15 -3 17 -8q4 -8 8 -8q5 -2 14 -17t6 -18v-14q7 -23 -14 -37q-20 -13 -37 0q-24 20 -31 41z" />
    <glyph glyph-name="uni1023" unicode="im" horiz-adv-x="1804" 
d="M-49 178q-1 125 76.5 315t128.5 226q20 9 62.5 -21.5t57.5 -62.5q-49 -54 -121 -229q-84 -207 -77 -284q3 -30 22 -30q38 -3 155.5 120.5t235 273t189.5 257.5q12 35 29 45q19 13 45 0q22 -11 46.5 -43.5t28.5 -58.5q4 -24 -14 -94q-15 -60 -8 -60q3 3 27 28.5t39.5 39.5
t40.5 34t49 30t47 10q42 0 74 -38t44 -85q4 -14 11 -14q8 0 49 38q86 79 139.5 106.5t89.5 10.5q17 -7 48 -46t40 -64q8 -20 11 -23q2 -1 4 -9.5t2 -23.5t-4 -30q-1 -4 -1.5 -7.5t-1.5 -8.5t-2 -9q-11 -54 -47 -150t-47 -141q-14 -56 -11 -72q6 -29 48 -22q135 23 346 219
q24 22 23 4q-1 -12 -10 -28q-53 -98 -141.5 -187t-180.5 -110q-71 -16 -144.5 21.5t-86.5 105.5q-9 43 63 270q34 110 37 137q3 20 -0.5 22t-18.5 -8q-45 -27 -177 -183t-126 -185q3 -13 -13.5 -27t-35.5 -14q-40 0 -62 22.5t-25 57.5t1 78.5t16.5 85.5t21.5 78.5t15.5 57
t-0.5 21.5q-35 -3 -112.5 -110.5t-164 -247.5t-110.5 -170q-11 -14 -28 -14q-24 0 -48 23t-28 52q-6 36 100 344q-90 -138 -194 -257t-162 -150q-37 -19 -76 -19q-77 0 -130.5 66t-53.5 137zM266 883q-48 57 -12 137q15 34 26.5 47.5t26.5 13.5t39 -12q38 -19 44.5 -54
t-19.5 -81q-37 -62 -80 -62q-17 0 -25 11z" />
    <glyph glyph-name="uni1029" unicode="om" horiz-adv-x="1914" 
d="M-29 184q-9 72 2 129q10 55 86 195q-37 15 -59 67t-10 91q50 -2 274 30q44 13 78 13q17 3 114 24t192.5 37t156.5 16q85 0 88 -34q34 -37 37 -68q3 -23 -15 -94q-15 -65 -8 -60q3 3 27 28.5t39.5 39.5t40.5 34t49 30t47 10q42 0 74.5 -38.5t44.5 -84.5q3 -14 10 -14
q8 0 49 38q84 78 137.5 105t90.5 12q19 -8 51 -46.5t39 -63.5q6 -20 10 -23v-63q0 -5 -4 -25q-11 -54 -46 -150t-46 -141l-3 -12q-4 -17 -6 -26t-3 -23t3.5 -21t15.5 -11t29 -1q136 23 347 219q24 22 22 4q-1 -12 -10 -28q-53 -98 -141.5 -187t-180.5 -110
q-71 -16 -144.5 21.5t-86.5 105.5q-9 43 63 270q34 110 37 137q3 20 0 22t-18 -8q-45 -27 -177 -183t-126 -185q3 -13 -13.5 -26t-35.5 -15q-40 -3 -62 17.5t-25 55.5t1 79t16.5 87t21.5 80.5t15.5 59t-0.5 22.5q-27 -2 -84 -73t-110.5 -157t-111.5 -178t-81 -120
q-11 -14 -29 -14q-23 0 -46.5 23t-29.5 52q-4 24 26.5 122t86 255.5t70.5 202.5q-30 -5 -109.5 -20.5t-126.5 -24.5q15 -21 25 -41q15 -31 15 -53.5t-13 -94.5q-15 -91 -34.5 -137t-74.5 -119q-119 -158 -217 -176q-32 -6 -52.5 -1t-60.5 28q-67 39 -94.5 78t-36.5 110z
M164 346q-18 -41 -31.5 -103.5t-9.5 -88.5q6 -33 27 -33q17 0 43 26q27 27 34 27q18 0 75.5 91t76.5 149q33 103 12 151l-61 -12q-8 -14 -29 -21q-35 -12 -74.5 -71.5t-62.5 -114.5z" />
    <glyph glyph-name="s_t" unicode="st" horiz-adv-x="849" 
d="M-63 328q-35 70 -16.5 141.5t65 128.5t107.5 93t112 36q25 0 41 -8q26 -14 54 -59t28 -76q-8 -37 -25 -37q-6 0 -21.5 9.5t-23.5 10.5q-35 4 -91.5 -29.5t-95.5 -81.5t-28 -79q6 -19 45 -33t86.5 -38.5t71.5 -65.5q102 85 270 237q2 5 5 14.5t5 14.5q-5 0 -10 -1l-6 -1
l-68 -19q-12 0 -14 2q-12 5 -27 19.5t-14 21.5q0 5 -6 17q-11 22 -8 63q2 29 18 39.5t68 14.5h51q2 0 6 2t6 2q5 0 12 1t19 3t22 4l50 162q29 94 62.5 190t57 158.5t25.5 68.5q14 41 47 41q42 0 80 -48t21 -89q-40 -101 -97 -266l-65 -195q81 9 166 15q49 4 55 6
q38 11 51 -2q23 -23 -16 -60.5t-68 -46.5q-20 -7 -45.5 -16.5t-38.5 -14t-18 -4.5q-9 0 -25 -4q-12 -4 -18 -4q-1 0 -25 -4q-20 -4 -22 -4q-22 -4 -45 -12q-204 -622 -193 -658q-6 -2 -18 -2q-136 0 -23 437q-79 -95 -221 -230q-21 -47 -58.5 -80t-95.5 -67q-28 -16 -67 10
t-63 64t-17 55q9 19 45 35q21 9 68 24q83 28 96 45q11 16 -13 35q-19 10 -71.5 27t-87.5 37t-51 51z" />
    <glyph glyph-name="e_e" unicode="ee" horiz-adv-x="1245" 
d="M-12 150q-21 52 -14.5 127t42.5 143q49 94 128 158.5t153 64.5q59 0 110.5 -42.5t61.5 -100.5q9 -49 -20.5 -96t-82 -83.5t-106 -66.5t-100.5 -55t-58 -39q-13 -16 13 -35q26 -16 63 -16q137 0 473 167q16 83 66 167.5t116.5 140t124.5 55.5q27 0 48 -12q60 -34 87 -94.5
t1 -110.5q-24 -46 -70.5 -85.5t-96 -63.5t-88 -38t-61.5 -18q-14 -2 -14 -27q0 -32 2 -38q7 -24 20 -35q23 -2 50.5 -2.5t70.5 13.5t90 37t109.5 68.5t128.5 106.5q16 11 13 -6q-8 -38 -76 -124q-112 -144 -228 -192q-47 -20 -90 -20q-48 0 -106.5 36t-75.5 79
q-20 33 -25 69q-85 -74 -214 -143.5t-218 -69.5q-78 0 -137 48t-90 133zM127 348q-34 -45 -10 -45q19 0 67.5 28t71.5 44q48 34 77.5 74.5t18.5 64.5q-13 26 -97 -40t-128 -126zM819 344q38 -3 98 45t95 96q23 33 10 40q-7 4 -23 -5q-40 -23 -95 -78t-85 -98z" />
    <glyph glyph-name="g_g" unicode="gg" horiz-adv-x="1527" 
d="M283 -444q-86 -115 -220 -115q-86 0 -145 47.5t-47 112.5q5 26 33 63.5t78.5 86t72 68t66.5 58.5q40 34 120.5 103.5t120.5 103.5q9 8 30.5 83t25.5 101q-13 -20 -43 -67t-46 -70.5t-47.5 -58t-66.5 -60.5q-49 -32 -98 -32q-90 0 -152 92q-28 41 -19.5 107.5t36 142
t76 152t101.5 138.5t112.5 101t107.5 39q59 0 90 -47q14 -21 19 -20q2 0 1 3q0 19 17 43q12 19 20.5 22t36.5 -3q56 -11 84 -39q14 -14 21 -34.5t5 -51.5t-3.5 -47.5t-9 -54t-7.5 -38.5q-2 -10 -14.5 -55.5t-21.5 -84t-5 -48.5q35 12 183 143q20 18 72 74.5t77 75.5
q63 49 148 49q39 0 59 -10q24 -16 31 -13q9 0 57 84q29 50 84 50q43 0 81.5 -25.5t43.5 -54.5q4 -39 4 -109.5t-14 -164.5t-32 -200.5t-50 -218t-67.5 -216t-85 -195.5t-103 -156.5t-120.5 -98.5t-138 -22l-19 4q-109 24 -159.5 122t-45.5 185t31 87q13 0 21 -31
q22 -71 35 -98q88 -180 178 -152q69 29 143 168.5t126 308t86 329.5t32 241l-2 39q-18 -32 -56 -103.5t-62.5 -114.5t-64.5 -100t-81 -98q-84 -84 -168 -84q-49 0 -88 33q-25 26 -34 54.5t-11 62t-9 53.5q-23 0 -67 -31q-46 -33 -69.5 -59.5t-41.5 -69.5q-5 -11 -24.5 -62
t-25.5 -65t-24 -57.5t-27 -62.5t-27 -56t-32 -61t-33.5 -55t-39.5 -60zM403 623q-47 -7 -105.5 -68t-103.5 -138.5t-73.5 -158.5t-22.5 -127q7 -10 17 -10q33 0 117 111.5t153.5 226t71.5 133.5q-3 38 -54 31zM829 123v-14q7 -32 107 106q105 145 167 260q12 22 15 31
q5 16 -22 7q-19 -7 -31 -15q-61 -42 -143 -174.5t-93 -200.5zM96 -297q-38 -34 -82.5 -94.5t-9.5 -71.5t84.5 34.5t90 109t69 118.5t26.5 64q-3 2 -18 -13q-83 -70 -160 -147z" />
    <glyph glyph-name="l_l" unicode="ll" horiz-adv-x="1050" 
d="M63 10q-99 54 -92 240q5 129 93.5 374t204 472t200.5 329q49 64 78 64q27 0 67 -49q35 -42 29 -107.5t-53 -171.5q-38 -83 -88 -153q-19 -27 -59 -83.5t-50 -70.5q-69 -102 -123 -170q-75 -95 -94 -158q-8 -28 -12 -34q-2 -3 -2.5 -8t-1.5 -7q-16 -45 -30.5 -117
t-14.5 -144.5t30 -80.5q40 -11 138 48.5t215 156.5q24 126 91.5 283.5t145.5 287.5t158.5 224.5t130.5 107.5q59 14 131 -82q29 -39 31.5 -91.5t-18 -109.5t-54 -117.5t-80.5 -120t-94.5 -112t-97.5 -98.5q-5 -7 -15 -14q-11 -7 -28.5 -23.5t-18.5 -17.5q-22 -19 -50.5 -46
t-67.5 -64.5t-64 -61.5q-9 -67 -6 -119q3 -50 43 -60v-2q64 -9 170.5 33.5t251.5 163.5q14 7 10 -4q-9 -32 -82 -112q-129 -139 -248 -182q-42 -15 -78 -15q-82 0 -131 80q-33 42 -43 116q-229 -190 -354 -190q-41 0 -68 16zM1024 1057q-86 -71 -223 -301q-93 -155 -95 -185
q0 -6 5 -2q31 21 96 85.5t134.5 143t115.5 157t33 116.5q-3 12 -17 12q-16 0 -49 -26z" />
    <glyph glyph-name="o_o" unicode="oo" horiz-adv-x="1228" 
d="M2 104q-38 93 -13.5 209t91.5 228.5t149 177.5q13 10 29 10t31.5 -12t42 -43t33.5 -39l34 24q5 6 23 0.5t29 -22.5q12 -21 63.5 -35t116.5 -14q114 0 192 45q29 29 47 29q12 0 25.5 -9.5t23.5 -21t26.5 -31t25.5 -29.5l30 23q8 5 41 -10t45 -23q9 -6 27 -35l27 -86
q4 -46 4 -51q0 -116 -63 -222t-164 -171q-37 -24 -87.5 -31.5t-80.5 4.5q-34 14 -69 47.5t-48 65.5q-33 90 -9.5 199.5t89.5 216.5q-72 -30 -156 -19q1 -5 -0.5 -21.5t-1.5 -19.5q0 -155 -96 -280q-139 -185 -279 -185q-49 0 -102.5 42t-75.5 89zM248 494q-33 -42 -85 -154
q-93 -200 -40 -236q9 -6 24 -6q35 0 84 40.5t88 84.5q55 62 82.5 135t22.5 131q-4 1 -12.5 5.5t-12.5 5.5q-23 5 -35.5 9.5t-25.5 13.5t-17.5 24t-3.5 37q-8 -6 -18.5 -20t-25.5 -36t-25 -34zM860 440q-28 -35 -77 -146q-84 -189 -39 -215q9 -5 24 -3q31 5 63 26.5t50.5 40
t46.5 50.5q51 58 76 124t20 121q-16 5 -20 8q-12 8 -37.5 19t-33.5 22.5t-5 36.5q-8 -6 -18.5 -19t-25 -33t-24.5 -32z" />
    <glyph glyph-name="p_p" unicode="pp" horiz-adv-x="1433" 
d="M-225 -666q0 218 96 562q20 70 77.5 263t82.5 292q38 170 45 239q2 22 12.5 45t28.5 23q8 0 18 -4.5t17 -10t19 -15.5t19 -15q7 -6 16.5 -18t12.5 -15l12 -12q3 -2 5 -2q0 -2 4 -2q20 0 32 6q15 6 35 6q72 0 134.5 -50.5t96 -122.5t33.5 -143q0 -15 -4 -43v-10l6 6
q32 32 118.5 106.5t127.5 119.5q8 8 12 14q1 2 13 14q22 46 47 154q10 45 14 53l13 25q6 12 18 12q31 0 66.5 -49.5t35.5 -85.5q0 -16 -6 -31q-4 -12 -4 -16q-2 -6 -2 -17q0 -13 25 -18q7 0 17.5 1t12.5 1q94 0 178 -102t84 -197q0 -61 -43 -123t-107 -107t-135 -76
t-130 -38q-33 0 -56 -2q-41 0 -47 -2q-21 -6 -44 -79.5t-33 -123.5q-37 -188 -54 -242q-13 -41 -16 -98q0 -86 -29 -86q-6 0 -18 4q-62 21 -77 46.5t-15 94.5q0 136 84 422q23 79 73 225.5t64 200.5l4 17l-12 -13q-156 -156 -433 -323q-32 -19 -61 -19q-35 0 -64.5 48.5
t-29.5 87.5q0 21 26 28q9 2 28 3.5t22 2.5q94 15 147 75t53 155q0 31 -10.5 77t-36.5 89t-61 43q-23 0 -48.5 -29t-46 -72t-34 -79t-21.5 -62q-52 -166 -100 -333.5t-100 -393.5t-52 -328q0 -9 2 -27t2 -26q0 -18 -36 -18q-52 0 -87.5 33.5t-35.5 84.5zM850 63q-3 -4 -8 -20
v-2h2q3 -6 12 -6q8 0 16 4q41 20 80 42t86.5 56t82 68.5t58 78.5t23.5 87q0 31 -14 54.5t-43 23.5q-56 0 -131 -70q-26 -25 -55 -78.5t-60.5 -127.5t-40.5 -91q-1 -2 -2 -5t-2 -5q-1 -1 -2 -4.5t-2 -4.5z" />
    <glyph glyph-name="t_t" unicode="tt" horiz-adv-x="659" 
d="M-12 -156q-26 1 -43 16t-23.5 44.5t-8 64.5t6.5 85.5t17 96t25.5 108.5t30 111t32.5 113q-15 6 -32.5 20.5t-17.5 20.5q0 11 -6 17q-19 19 -12 63q4 32 24.5 41t90.5 14h6l41 134q29 93 63 190t56.5 158t25.5 71q11 41 47 41q40 0 78 -49t21 -90q-11 -27 -70 -190
q-1 -4 -10.5 -30t-16.5 -44l-53 -158q-1 -3 -3 -8t-3 -8q96 12 115 14q37 4 39 2h14l45 144q29 93 62 189t56 159t25 69q14 41 47 41q42 0 80 -48t21 -89q-26 -66 -72 -192q-2 -8 -10.5 -33t-13.5 -41l-54 -158q-1 -4 -4 -12t-4 -12q12 0 86 4q56 0 72 4q51 12 67 0
q31 -23 -21 -62.5t-91 -48.5q-28 -7 -59.5 -16l-49 -14t-24.5 -5q-1 0 -11 -2t-16 -2q-207 -641 -199 -680q-6 -2 -18 -2q-27 1 -44 16.5t-23.5 46.5t-7.5 66t7.5 87.5t17 98.5t26 111t30.5 112t33 114q-13 -3 -27 -5.5t-25 -4.5t-14 -3q-19 0 -43 -6q-8 -2 -22 -2
q-8 4 -11 -2q-5 -5 -34 -8q-78 -241 -137.5 -441.5t-55.5 -220.5h-18z" />
    <glyph glyph-name="o_x" unicode="ox" horiz-adv-x="1447" 
d="M49 492q-39 10 -60 65t-3 94q54 -3 200 6q74 52 148 52q52 0 98 -35q72 6 151 14t147 14.5t85 8.5l33 10q4 -17 16 -90t22.5 -138t12.5 -67q0 -1 3.5 2t10.5 10t14 14.5t18 20t20 22.5l22.5 25l22.5 25q128 143 190 143q44 0 64 -59q35 -93 -23 -109q-24 -7 -70 -53
q-35 -35 -147 -166q-53 -62 -62 -96t19 -60q32 -28 80 -28q45 0 108 26t108.5 54.5t101 67t65.5 44.5q16 0 -20 -63q-27 -47 -60 -84q-40 -46 -91 -89t-118 -77t-119 -29q-67 6 -107.5 38.5t-76.5 100.5q-5 -6 -37 -47t-62 -69.5t-67 -46.5q-22 -11 -35 -11
q-33 0 -69.5 28.5t-55.5 57.5t-10 31q43 11 111 60.5t115.5 100.5t41.5 66q-26 66 -47 177l-12 112q-35 -3 -186 -20q13 -31 13.5 -54t-11.5 -90q-18 -94 -36.5 -139.5t-72.5 -116.5q-119 -158 -217 -176q-32 -6 -52.5 -1t-60.5 28q-67 39 -94.5 78t-36.5 110q-9 72 2 129
q11 54 76 179zM164 346q-19 -40 -32.5 -103t-8.5 -89q6 -33 27 -33q17 0 43 26q27 27 34 27q18 0 75.5 91t76.5 149q25 77 20 116q-21 -3 -62.5 -8t-62.5 -8q-25 -21 -46.5 -51.5t-33 -53t-30.5 -63.5z" />
    <glyph glyph-name="o_f" unicode="of" horiz-adv-x="1112" 
d="M23 49q-47 94 -34.5 219t70.5 253t136 206q18 18 41 18q6 0 12 -1t13 -4t12.5 -6t13 -8.5t12 -8.5t13 -10.5t12.5 -11t13.5 -12t12.5 -11.5l-12 -17q6 0 8 -2q36 -3 115.5 -1t184 6t106.5 4q32 0 41 7t26 44q77 168 143 284.5t166 255.5q13 17 35.5 40t59.5 53t83 45
t87 6q46 -14 69.5 -47.5t24.5 -71.5t-8.5 -75.5t-26 -65t-31.5 -35.5q-27 -14 -27 20q0 9 14 89q15 85 -15 90q-10 2 -25 -3q-54 -18 -158 -172.5t-182 -299t-74 -150.5q17 -1 82.5 5.5t96.5 6.5q51 0 65 -14q16 -18 -2 -38.5t-56.5 -37t-67.5 -26.5t-48 -15
q-88 -23 -111.5 -42.5t-48.5 -86.5q-24 -63 -35 -98q-45 -115 -76.5 -277.5t-17.5 -199.5q3 -10 -4.5 -17.5t-19.5 -7.5q-25 0 -48 27.5t-28 85.5q-8 89 13 218.5t42 213.5q1 5 17.5 62t17.5 69q0 5 -9.5 6t-28 -0.5t-38.5 -3.5t-49.5 -5t-52.5 -5q0 -5 4 -29
q23 -136 -72 -309q-34 -62 -62 -95.5t-77 -74.5q-39 -33 -92.5 -49t-87.5 -5q-38 12 -78 46t-59 69zM233 489q-30 -52 -72 -178q-74 -227 -13 -250q10 -4 22 -2q38 5 85 56t77 98q11 17 28.5 55.5t36 89.5t22.5 90t-13 58q-30 10 -55 54t-25 77l-33 -47q-2 -3 -14 -23
q-7 -11 -23 -39t-23 -39z" />
    <glyph glyph-name="o_f_f" unicode="off" horiz-adv-x="1720" 
d="M2 49q-47 94 -34.5 219t70.5 253t136 206q18 18 41 18q16 0 36 -11t32.5 -21t37.5 -33q6 -5 9 -8l-13 -17q7 0 9 -2q36 -3 115 -1t183.5 6t106.5 4q32 0 41.5 7t26.5 44q77 168 143 284.5t166 255.5q13 17 35.5 40t59 53t82.5 45t87 6q56 -18 79 -64t15 -93.5t-27 -87.5
t-38 -50q-27 -14 -27 20q0 9 14 89q15 85 -15 90q-10 2 -25 -3q-54 -18 -158 -172.5t-182 -299t-74 -150.5q17 -1 82 5.5t96 6.5q52 0 66 -14q16 -18 -2 -38.5t-56.5 -37t-67.5 -26.5t-48 -15q-88 -23 -111.5 -42.5t-48.5 -86.5q-24 -63 -35 -98q-45 -115 -76.5 -277.5
t-17.5 -199.5q3 -10 -5 -17.5t-20 -7.5q-25 0 -48 27.5t-28 85.5q-8 88 13 217t43 215q1 5 17.5 62t17.5 69q0 5 -9.5 6t-28 -0.5t-39 -3.5t-50 -5t-52.5 -5q0 -5 4 -29q23 -137 -71 -309q-33 -61 -62 -95t-78 -75q-39 -33 -92.5 -49t-87.5 -5q-38 12 -78 46t-59 69z
M1067 410q-90 90 -10 131q14 7 61 15.5t66 8.5q33 0 43.5 9t29.5 53q69 161 101 232.5t92.5 185.5t132.5 221q14 20 38 47t63 61.5t87.5 52.5t92.5 7q59 -21 78.5 -76t4 -112t-52.5 -95q-25 -25 -30 -25q-8 0 -5.5 19.5t8 44.5t5 49.5t-13.5 33.5t-48 -3
q-47 -19 -106.5 -95.5t-111.5 -173t-97 -191.5t-70.5 -160t-23.5 -68q21 -2 126.5 13t149.5 15t56 -12q34 -38 -78.5 -90.5t-177.5 -67.5q-49 -11 -74.5 -20.5t-44.5 -28t-27.5 -38.5t-21.5 -64q-3 -11 -18 -54t-21 -63q-45 -136 -77.5 -329t-18.5 -238q3 -12 -4.5 -19.5
t-20.5 -7.5q-27 0 -52 32t-32 101q-17 178 55 512q6 29 18.5 79.5t14.5 57.5q6 31 4 43q-1 5 -21 4t-39.5 -2.5t-29.5 5.5zM213 489q-30 -52 -72 -178q-74 -227 -13 -250q10 -4 22 -2q37 5 84 55.5t77 98.5q11 17 28.5 55.5t36 89.5t22.5 90t-13 58q-30 10 -55 54t-25 77
l-33 -47q-2 -3 -14 -23q-6 -10 -21.5 -37t-23.5 -41z" />
    <glyph glyph-name="r_r" unicode="rr" horiz-adv-x="1261" 
d="M-59 35q-10 15 -12 29t1 51l50 207q38 106 72.5 226t31.5 140q-1 10 7.5 15.5t21.5 5.5q19 0 37 -11q58 -34 40 -116q-8 -33 -8 -50q0 -1 8 6.5t25 24.5q76 76 127 76q17 0 32 -7t28.5 -25t22 -30.5t20.5 -44.5t16 -43.5t16 -48.5q28 -84 72 -84q32 0 94 62
q30 93 51.5 174t20.5 96q-1 10 7 15.5t21 5.5q19 0 37 -11q59 -35 41 -116q-8 -33 -8 -50q0 -1 8 6.5t25 24.5q76 76 127 76q17 0 32 -7t28.5 -25t22 -30.5t20.5 -44.5t16 -43.5t16 -48.5q28 -84 72 -84q28 0 58.5 27t78.5 82q7 -47 -63.5 -118t-123.5 -71q-159 3 -194 226
q-57 -73 -86 -125t-62 -132t-59 -132q-38 -77 -52.5 -98t-29.5 -21q-50 0 -76 41q-10 14 -11.5 29t1.5 51l51 207q1 3 3 10t3 10q-70 -66 -118 -66q-160 3 -195 226q-57 -73 -86 -125t-62 -132t-59 -132q-38 -77 -52.5 -98t-29.5 -21q-49 0 -75 41z" />
    <glyph glyph-name="o_n" unicode="on" horiz-adv-x="1349" 
d="M102 2q-49 0 -82 30t-44 74t-13 94t10 91q3 12 17 55q8 24 31.5 73.5t25.5 55.5q-3 6 -12 20t-12 20.5t-6.5 21t3.5 22.5q1 5 6.5 10.5t16.5 11t21 10t26.5 11t24.5 10.5q35 69 57 78q30 13 70 -12q114 34 245 59.5t205 12.5q2 2 4 2q12 0 41 -19l-2 -4q42 -29 49 -53
q0 -2 2 -6.5t1.5 -6t-1 -7t-3.5 -13t-8 -19.5t-13 -30q-18 -42 -43 -115.5t-25 -83.5q0 -1 11.5 11.5t31 33t44 45.5t52 51t53 48.5t49 38t38.5 18.5q57 12 96 -35.5t41 -103.5q0 -11 -4 -39t-9.5 -61.5t-11 -72t-8 -74t-1.5 -64.5t9 -46t23 -16q21 -1 55.5 16.5t69 43.5
t65 51.5t52.5 45.5l22 19q4 2 3 -3q-2 -26 -47 -96q-86 -131 -185 -166q-50 -17 -99 -5q-120 28 -96 229q2 38 13 111q15 92 6 96q-22 11 -154.5 -153t-157.5 -224q-32 -76 -49.5 -94t-52.5 -12q-22 4 -57 35q-24 23 -28.5 34.5t-2.5 48.5q2 43 55.5 219.5t104.5 303.5
q-52 0 -132 -18.5t-110 -32.5q21 -89 6 -166q-14 -71 -62.5 -172t-97.5 -170q-74 -102 -127 -68zM100 223q-18 -73 11 -76q26 0 81.5 133t59.5 171q2 17 1.5 28.5t-3.5 16.5t-8 4q-30 0 -79.5 -111t-62.5 -166z" />
    <glyph glyph-name="b_b" unicode="bb" horiz-adv-x="1468" 
d="M117 -10q-6 -25 -43 -25q-22 0 -45.5 11.5t-45 36.5t-29 64.5t2.5 94.5q34 168 79.5 349.5t118.5 449.5t93 344q14 53 74 53q40 0 67 -26t17 -68q-17 -68 -82 -282t-68 -226q-18 -62 -22.5 -85.5t-0.5 -23.5t26 21.5t59 43t77 21.5q49 0 99 -34q73 -50 96 -115.5
t18 -161.5q-3 -62 -20 -113q135 122 284 283q2 7 7.5 21.5t7.5 21.5q14 46 90.5 276.5t95.5 299.5q41 147 53 173.5t35 26.5q25 0 55.5 -31t36.5 -63q6 -30 -14 -88q-32 -99 -33 -104q-7 -30 -20 -70q-11 -32 -49 -137q-10 -28 -20 -60.5t-15.5 -51t-7.5 -21.5q74 41 133 41
q60 0 94 -45q56 -71 72 -170.5t-6.5 -195.5t-67.5 -180t-113 -136t-139 -52t-137 54l-31 24l-22 -59q-21 -69 -21 -90q0 -31 -10 -31q-1 0 -25 -6q-15 -4 -43 10q-12 6 -25.5 20.5t-19.5 28.5q-11 24 -11.5 42.5t11.5 82.5q9 64 58 223q-43 -59 -105 -123t-136.5 -124
t-158.5 -99t-155 -39q-33 0 -50 19.5t-16.5 47t9 55t25 46t32.5 17.5q98 -7 175 117q64 102 76 221q11 105 -32 125q-9 4 -19 4q-43 0 -99.5 -66t-113.5 -207q-64 -161 -106 -360zM1198 700q-28 19 -89.5 -80t-110 -217.5t-48.5 -156.5q0 -45 66 -45q33 0 71 14
q58 23 96 97.5t48 154.5t1 149t-34 84z" />
    <glyph glyph-name="s_s" unicode="ss" horiz-adv-x="950" 
d="M10 -88q-58 0 -93.5 40t-22.5 97q4 19 8.5 29t8 14t12.5 11.5t16 15.5q9 10 49.5 47.5t46.5 46.5q1 7 -12.5 28t-30 47t-27 67.5t-4.5 84.5q9 50 50 107t85 80q11 5 37.5 12t34.5 4q30 -10 41.5 -42t3.5 -64t-25 -43.5t-51 -16.5q-31 -4 -51 -32t-23 -60q-3 -27 11.5 -60
t36.5 -40q11 -4 42.5 14t69.5 44t45 30q115 69 174 102q53 74 134.5 116t128.5 19q25 -12 46.5 -49t20.5 -65q-10 -31 -24 -31q-6 0 -19 7.5t-20 8.5q-32 5 -83.5 -24.5t-88.5 -71.5t-29 -68q4 -13 26.5 -23.5t49.5 -18t56 -27t44 -47.5q120 53 170 53q25 0 25 -14
q-39 -19 -183 -115q-12 -94 -159 -174q-26 -14 -60.5 7t-54.5 53t-12 46q14 23 43 31q20 5 26 8q21 11 63.5 34.5t63.5 33.5q-4 8 -12 16q-17 8 -62 22t-76 30.5t-46 41.5q-13 24 -17 60q-138 -87 -162 -105q-32 -23 -35 -31.5t11 -37.5q33 -73 14 -117q-20 -46 -88.5 -88.5
t-122.5 -42.5zM31 59q-19 -21 -15 -23.5t25 11.5q56 40 71 71q5 11 -1 11q-15 0 -80 -70z" />
    <glyph glyph-name="m_m" unicode="mm" horiz-adv-x="2269" 
d="M-123 61q-3 29 49.5 170t117 305t79.5 214q19 65 39.5 84t52.5 2q22 -12 44.5 -48t27.5 -65q3 -22 -19 -102q-19 -66 -12 -64q3 3 20 20.5t26.5 26.5t28.5 26.5t34 27.5t33.5 21.5t36.5 17t34 5.5q48 0 77.5 -42t43.5 -97q3 -16 10 -16q9 0 53 41q138 123 209 123
q38 0 73 -44t48 -87q4 -22 10 -25q1 -1 1 -10.5t-1 -25.5t-4 -32q-4 -22 -6 -26q-80 -196 -82 -258q1 -20 26.5 -3t41.5 33q75 75 230 241.5t171 199.5q20 41 51 41q21 0 60 -27q10 -8 14.5 -14.5t7.5 -9.5q7 -7 26.5 8.5t41.5 39.5t54.5 43.5t62.5 16.5q36 -3 59.5 -37.5
t29.5 -78.5t9 -89.5t-2 -72.5q130 145 233 145q52 0 83.5 -36.5t21.5 -98.5q-10 -63 -52 -231.5t-45 -217.5q-1 -21 -20.5 -28.5t-38.5 -3.5q-40 9 -55 36q-11 18 -10.5 55t8 78.5t20 89.5t24.5 86t23 72t13 43q6 25 -19 12q-46 -23 -124 -111q-60 -67 -81 -112
q-62 -130 -71 -192q-4 -27 -10 -35t-21 -8q-67 3 -100 51q-12 19 -11 38q2 26 60 287q2 10 4 19q18 82 26 156q-82 -104 -124 -172q-35 -56 -107.5 -198t-75.5 -173q3 -14 -30 -14q-29 0 -56 12l-8 4q-15 7 -24.5 17.5t-12.5 25t-4.5 26t3 31.5t6.5 29t9.5 31t8.5 26
q3 11 20 49.5t19 51.5q1 4 4 10q1 4 1 3q-2 -1 -9 -9q-46 -52 -73.5 -82t-83.5 -86.5t-105 -91t-87 -43.5q-64 -13 -102.5 19t-47.5 89t-3 117.5t24 110.5q41 112 45 145q3 22 1 24.5t-19 -5.5q-46 -25 -191.5 -189t-142.5 -196q2 -14 -15.5 -29t-37.5 -15q-56 1 -75 46.5
t-7.5 109.5t31 128t34 108.5t7.5 44.5q-36 1 -122 -108.5t-189 -265.5t-121 -179q-12 -15 -29 -15q-25 0 -48.5 26t-27.5 60z" />
    <glyph glyph-name="n_n" unicode="nn" horiz-adv-x="1495" 
d="M-31 4q-62 52 -49 113q7 35 63 196.5t56 182.5q0 23 15 81.5t26 69.5q25 10 40.5 3.5t37.5 -36.5q33 -46 34.5 -79.5t-18.5 -81.5q16 11 66 45q66 49 110 39l8 -2q41 -11 74.5 -61.5t50.5 -104.5q2 -5 5 -26.5t6 -40.5t6 -21q12 -8 112 92q25 25 77 73.5t93.5 90
t71.5 77.5q11 13 21.5 31.5t18 26.5t17.5 8q14 0 47 -23q30 -23 38.5 -38t-1.5 -41q-15 -40 -36.5 -107.5t-30.5 -93.5q-6 -17 -3 -17q1 0 3 2q11 11 49.5 50.5t60.5 61.5t55.5 50.5t59.5 44.5l10 6q17 11 39 11q43 0 80 -45.5t39 -89.5q0 -20 -5.5 -71.5t-9.5 -96t-2 -90
t15 -64.5q9 -12 27 -12q14 0 32.5 7t39.5 20.5t40.5 27t42 32t35.5 30t30.5 26.5t18.5 16q4 4 3 -2q-4 -29 -47 -95q-51 -79 -107 -116q-56 -36 -115 -36q-49 0 -86 30q-18 15 -29.5 40.5t-17 47.5t-7 60t-1 56t3 59t2.5 47q0 1 1 8.5t1.5 16t0.5 17.5t-2 14.5t-5 4.5
q-30 -1 -141.5 -146.5t-135.5 -197.5q-30 -69 -43.5 -83.5t-46.5 -10.5q-19 3 -50.5 24t-37.5 37q-9 23 4.5 99.5t28 132t28.5 100.5q-165 -196 -266 -289q-40 -37 -80 -37q-50 0 -73 64q-8 23 -8 69.5t3.5 102t2.5 76.5q0 36 -5 40t-16 -3q-82 -57 -152.5 -142t-117.5 -180
q-13 -28 -29 -82q-6 -18 -25 -18q-21 0 -51 20z" />
    <glyph glyph-name="o_u" unicode="ou" horiz-adv-x="1460" 
d="M100 6q-41 7 -70.5 32t-44 58.5t-21 73.5t-4.5 77t9 70q2 9 17 54q7 23 31.5 69t25.5 49q-3 6 -9.5 17.5t-10 18.5t-8 19t-3.5 18.5t4 17.5q1 7 13.5 12.5t44 13.5t39.5 10q38 62 59 68q33 10 70 -22q137 18 274 18q150 0 201 -25q24 0 53 -34q32 -37 33.5 -60t-27.5 -55
q-32 -36 -67 -114.5t-47 -141.5q-16 -80 -11 -83q1 -2 6 -1q16 3 192.5 201.5t254.5 298.5q20 26 49 26q32 0 69.5 -27.5t57.5 -58t12 -39.5q-33 -36 -111 -179q-127 -232 -104 -284q6 -13 21 -12q51 2 104 22t103.5 54.5t86.5 64t78 68.5q16 15 3 -20q-7 -19 -15 -35
q-53 -105 -157.5 -176.5t-196.5 -77.5q-50 -4 -83.5 8.5t-45.5 44.5t-18 56t3 74.5t13 67.5t18 64q3 10 4 15q0 1 -2.5 -1.5t-8 -9t-11.5 -13.5t-15.5 -19t-17.5 -21q-6 -7 -37 -45.5t-49 -59.5t-47.5 -52t-55.5 -50.5t-49 -27.5q-55 -12 -110 27.5t-70 101.5
q-16 67 12.5 186t77.5 213q-55 4 -125.5 -1t-99.5 -11q25 -102 8 -170q-8 -34 -34 -93.5t-61.5 -124.5t-80 -112t-80.5 -47q-18 0 -39 14zM98 229q-20 -68 11 -77q4 -2 16 10q10 10 28.5 37t20.5 32q11 33 44 100t36 99q6 51 -12 51q-16 0 -45 -39q-58 -75 -99 -213z" />
    <glyph glyph-name="o_r" unicode="or" horiz-adv-x="1220" 
d="M61 -2q-105 18 -102 178q2 123 55 268.5t140 206.5q20 42 69 39q1 0 5 -1t7.5 -1.5t6.5 0.5q22 0 72 -7.5t77 -8.5q9 0 47 -2t63 -2.5t60.5 1t64 7.5t48.5 16q1 7 10.5 12t20.5 5q16 0 34 -11q54 -32 41 -116l-8 -50q0 -1 4.5 2.5t12.5 11.5t16 17q72 80 125 80
q25 0 45.5 -16.5t38.5 -52t27.5 -61t25.5 -73.5q28 -84 72 -84q28 0 58.5 27t78.5 82q7 -47 -63 -118t-123 -71q-160 3 -195 226q-57 -73 -86 -125t-61.5 -130.5t-59.5 -133.5q-38 -77 -52.5 -98t-29.5 -21q-50 0 -76 41q-10 14 -11.5 29t1.5 51l51 207q47 136 74 235
q-93 -16 -141 -16q-67 0 -101 22q18 -51 15 -106q-9 -195 -152 -363q-51 -60 -92.5 -79.5t-112.5 -16.5zM84 158q0 -37 6 -45q26 0 68 51q134 164 139 330q0 40 -10 73q-25 0 -45 4q-48 -70 -101.5 -204.5t-56.5 -208.5z" />
    <glyph glyph-name="o_i" unicode="oi" horiz-adv-x="1079" 
d="M-31 164q-7 138 51 276q68 161 160 219q24 43 88 43q4 -4 25 -4q74 -11 192 -14q104 -2 277 35q20 9 63 -21.5t58 -62.5q-49 -54 -121 -229q-84 -207 -77 -284q3 -30 22 -30q58 -4 153.5 55.5t216.5 155.5q17 -36 -75 -140t-185 -169q-41 -27 -80 -27q-71 0 -125.5 71
t-54.5 140q0 81 34.5 195t82.5 213q-88 -15 -168 -15q22 -49 22 -110q0 -194 -172 -369q-62 -59 -110.5 -79.5t-134.5 -20.5q-133 15 -142 172zM299 575q-56 -68 -114 -208t-58 -220q0 -31 10 -41q30 0 82 52q154 154 154 338q0 41 -17 75q-10 1 -23 1.5t-21 1t-13 1.5z
M872 883q-50 59 -12 137q19 38 29 50.5t24 12.5q11 0 39 -14q81 -40 25 -135q-37 -62 -80 -62q-17 0 -25 11z" />
    <glyph glyph-name="o_j" unicode="oj" horiz-adv-x="948" 
d="M-33 160q-9 125 51 260q62 143 158 198q20 39 84 39q2 0 12 -1t13 -1q58 -6 190 -10q106 -2 275 35l2 -2q30 16 86 -6.5t59 -44.5q10 -64 -63.5 -334.5t-174.5 -547.5t-159 -353q-61 -78 -164 -78q-40 0 -84 12q-147 42 -205 186q-38 92 -24 173q7 43 24 43q3 0 23 -49
t46.5 -107t69 -107t84.5 -49q53 0 105 78q80 121 177.5 450t162.5 621l-8 -2q-62 -16 -207 -20q25 -42 28 -101q9 -179 -161 -352q-62 -58 -113 -78t-141 -20q-137 12 -146 168zM182 344q-60 -149 -55 -199q3 -36 12 -43q30 0 88 59t82 97q69 113 60 215q-3 41 -19 70
q-45 0 -57 2q-56 -67 -111 -201zM834 958q-14 28 1.5 83t43.5 75q23 17 62.5 -3t47.5 -52q7 -29 -20 -78t-63 -79.5t-54 -12.5q-12 12 -12 33q0 19 -6 34z" />
    <glyph glyph-name="f_u" unicode="fu" horiz-adv-x="1447" 
d="M-33 389q-27 24 -41 47.5t-9.5 46.5t32.5 37q14 7 61.5 19t65.5 14q34 3 43 11.5t24 51.5q102 286 150 394q60 133 139 264q13 21 35.5 48.5t60 65t85 58t92.5 12.5q60 -18 82.5 -71.5t10 -111t-47.5 -97.5q-22 -25 -31 -25q-6 0 -5 23t6.5 50.5t0 50.5t-26.5 23
q-12 0 -35 -10q-47 -20 -102 -99.5t-101.5 -179t-85 -197t-60 -164t-19.5 -70.5q20 0 123.5 24.5t197 40.5t109.5 0l24 -24q35 -35 36.5 -58t-29.5 -57t-66 -113t-47 -143q-16 -80 -10 -84q1 -1 6 0q16 3 190.5 201t253.5 299q20 26 49 26q32 0 70 -27.5t58.5 -58
t11.5 -39.5q-32 -32 -109 -174q-121 -221 -107 -283q4 -19 23 -18q50 2 103 22t103.5 54.5t87 64t77.5 68.5q16 15 4 -20q-7 -21 -14 -35q-53 -105 -158.5 -176.5t-198.5 -77.5q-50 -3 -83 9.5t-45 44.5t-18 56t3 74t13.5 67t17.5 64q3 10 4 15q0 2 -11 -11q-8 -10 -42 -53
q-42 -54 -70.5 -88.5t-80 -84t-87.5 -62.5q-56 -12 -111.5 28t-68.5 101q-13 63 10 172.5t65 199.5q-77 -36 -200 -82q-91 -34 -115 -57.5t-45 -101.5q-2 -6 -7.5 -29t-12 -46.5t-11.5 -43.5q-38 -140 -59 -334.5t-4 -237.5q4 -12 -3.5 -20t-21.5 -8q-28 0 -53.5 30
t-36.5 97q-28 169 27 516q18 112 22 139q4 34 2 43q-1 5 -21 2.5t-39 -6t-30 3.5z" />
    <glyph glyph-name="f_o" unicode="fo" horiz-adv-x="1171" 
d="M-10 389q-27 24 -41 47.5t-10 46.5t32 37q14 7 61.5 19t65.5 14q34 3 43.5 12t24.5 51q102 286 150 394q60 133 139 264q10 16 25 36t43.5 51t58.5 53.5t69.5 36t75.5 7.5q60 -18 82.5 -71.5t10 -111t-47.5 -97.5q-22 -25 -31 -25q-12 5 -3 38t7 71t-28 38q-12 0 -35 -10
q-46 -20 -101.5 -99t-101.5 -178.5t-85 -197.5t-61 -164.5t-20 -70.5q20 0 206 44.5t259 53.5q2 2 6.5 5t6.5 5q10 10 49 -10q1 0 3 -1t3 -1q34 -19 56 -44t11 -38q-26 -28 -104 -159q-147 -247 -110 -279q5 -4 14 -4q8 0 57 45q85 78 146.5 185.5t50.5 203.5
q-2 21 -5.5 32.5t-7.5 14.5t-7.5 4t-5.5 3t-3 9q-1 8 9.5 15t28.5 11.5t38 4.5q63 0 90 -37q84 -109 -62 -373q-22 -40 -53 -83.5t-72 -90t-88.5 -76.5t-89.5 -30q-31 0 -53 14q-131 81 -131 197q0 68 34.5 165.5t86.5 184.5q-153 -67 -279 -109q-93 -31 -117.5 -55
t-41.5 -104q-2 -11 -31 -119q-38 -140 -59.5 -334.5t-4.5 -237.5q4 -12 -3 -20t-21 -8q-28 0 -54 30t-36 97q-27 179 26 516q22 132 23 139q6 25 2 43q-1 5 -21 2.5t-39 -6t-30 3.5z" />
    <glyph glyph-name="o_l" unicode="ol" horiz-adv-x="1261" 
d="M6 68q-46 93 -32 217.5t71.5 251.5t134.5 206q18 21 41 21q16 0 38 -13t36.5 -25.5t40.5 -37.5l-57 -82q-10 -10 -15 -20q-5 -11 -45 -78q-30 -48 -72 -173q-74 -220 -20 -253q11 -6 27 -4q23 3 71 41q63 53 116.5 158t61.5 186q-59 66 -73 143l-6 31q-4 20 8.5 37
t34.5 20q26 4 84 -8.5t61 -30.5q18 -114 68.5 -153.5t121.5 -20.5q51 186 158 395t219 353t181 162q64 16 151 -95q31 -42 35.5 -99t-15.5 -118.5t-54.5 -126.5t-83 -130.5t-99 -123t-104.5 -110.5q-132 -139 -279 -197q-13 -43 -19 -106t-1 -107q6 -58 47 -67
q70 -16 191 31.5t286 183.5q14 8 11 -4q-9 -32 -86 -117q-137 -148 -266 -202q-56 -23 -104 -23q-95 0 -151 90h2q-78 86 -45 292q-27 -2 -98 7q-12 2 -41 10q-12 -99 -72.5 -203t-140.5 -172q-38 -32 -91.5 -47.5t-87.5 -3.5q-38 14 -78.5 47t-60.5 68zM1262 1180
q-92 -78 -239 -325q-101 -170 -110 -216q-3 -11 5 -6q36 24 147 135q126 132 210 252.5t62 175.5q-7 14 -20 14q-22 0 -55 -30z" />
    <glyph glyph-name="o_s" unicode="os" horiz-adv-x="1095" 
d="M1087 223q-33 -14 -186 -112q-4 -61 -50.5 -108.5t-111.5 -78.5q-27 -13 -64 14.5t-59 65.5t-14 53q11 20 43 31q2 1 10 1.5t11 2.5q64 38 137 70q-3 9 -12 18q-18 10 -67 29.5t-82 41t-48 52.5q-46 100 10 203q-79 -25 -153 -35q11 -22 16 -51q17 -130 -72 -283
q-32 -54 -57.5 -84.5t-69.5 -64.5q-36 -28 -84.5 -39t-79.5 2q-34 15 -69.5 49t-52.5 68q-26 53 -30.5 118.5t9 130.5t35.5 123t51 109q15 27 27 45t33.5 46t44.5 42.5t45 13.5q30 -2 74 -35q47 -34 24 -47q-55 -29 -125.5 -169t-95.5 -230q-7 -27 -10 -45t-4 -46t13 -42.5
t42 -13.5q19 0 65 32q92 75 148 232q32 92 14 125h-2q-26 25 -40.5 62.5t-3 67t55.5 25.5q69 -6 200 9.5t220 35.5q38 15 70 15t49 -10q26 -17 51 -62.5t25 -75.5q-8 -35 -23 -35q-6 0 -20.5 10.5t-22.5 12.5q-34 7 -88 -21.5t-91 -71.5t-28 -73q5 -16 29.5 -30.5
t52.5 -25.5t59 -35.5t48 -57.5q116 45 170 45q34 0 34 -19z" />
    <glyph glyph-name="o_t" unicode="ot" horiz-adv-x="993" 
d="M-35 174q0 134 70 250l45 76l-21 -2q-11 0 -14 2q-7 0 -24 17.5t-17 23.5q0 10 -6 16q-15 15 -8 61q5 31 19.5 41.5t66.5 14.5l53 4q83 86 170 86q64 0 133 -62l172 13q2 0 6 3t6 3q16 -1 156 22l27 93q27 95 60.5 190.5t58.5 159t26 67.5q14 41 47 41q42 0 80 -48
t21 -89q-26 -66 -72 -192q-3 -7 -10.5 -31.5t-14.5 -42.5l-45 -129q100 0 121 8q29 11 51 0q30 -15 -13 -57t-71 -51q-20 -7 -45.5 -16t-38.5 -13.5t-18 -5.5l-31 -6q-83 -251 -153 -482t-64 -252q-6 -2 -18 -2q-37 0 -56 28t-17.5 86.5t8 116t30.5 151t41 154t47 161.5
q-4 -1 -13 -2t-12 -2q-15 -4 -16 -3q-2 1 -4 0.5t-2 -2.5q-2 -3 -17 -6t-35.5 -6.5t-21.5 -3.5l-76 -8q1 -2 2 -7t2 -7q16 -44 2.5 -110.5t-36.5 -107.5q-197 -354 -346 -354q-24 0 -52 14q-133 67 -133 197zM152 285q-14 -27 -24.5 -66.5t-11.5 -65t7 -30.5q10 0 57 47
q82 82 144.5 179.5t62.5 182.5l-74 -8q-4 -6 -18 -20q-43 -43 -43 -53t-10 -23q-55 -74 -90 -143z" />
    <glyph glyph-name="f_r" unicode="fr" horiz-adv-x="1269" 
d="M-10 389q-40 35 -41.5 87.5t41.5 76.5q15 8 62.5 19.5t64.5 11.5q33 0 43.5 9.5t25.5 53.5q13 37 40.5 116t39 110t35.5 92.5t42.5 101t48 95t63.5 112.5q10 16 25 36t43.5 51t58.5 53.5t69.5 36t75.5 7.5q60 -18 82.5 -71.5t10 -111t-47.5 -97.5q-22 -25 -31 -25
q-12 5 -3 38t7 71t-28 38q-12 0 -35 -10q-47 -20 -102 -97.5t-100.5 -173.5t-84 -190.5t-59.5 -158.5t-19 -68q17 0 188.5 36t229.5 36q32 0 37 -10q28 -19 33.5 -36.5t-2.5 -58.5q-2 -11 -9 -34.5t-13.5 -42t-6.5 -19.5t9.5 14.5t23 36t22.5 29.5q68 68 119 68
q48 0 80.5 -51t63.5 -142q28 -82 71 -82q18 0 43 17.5t41 34t53 55.5q6 -46 -64 -117.5t-122 -71.5q-159 3 -194 225q-44 -57 -74.5 -106.5t-44.5 -81t-40 -91t-50 -108.5q-37 -77 -51.5 -97.5t-28.5 -20.5q-50 0 -78 41q-9 14 -10.5 27t2.5 50l49 209q48 131 86 264
q-38 -19 -90 -40.5t-92 -36t-76 -27.5t-39 -14q-79 -32 -99.5 -56t-38.5 -93q-5 -16 -7 -25q-2 -6 -7.5 -29t-12 -46.5t-11.5 -43.5q-38 -140 -59.5 -334.5t-4.5 -237.5q4 -12 -3 -20t-21 -8q-28 0 -53.5 30t-36.5 97q-28 172 26 516q3 18 8.5 49t9 54t5.5 36q4 34 2 43
q-1 5 -21 2.5t-39 -6t-30 3.5z" />
    <glyph glyph-name="e_l" unicode="el" horiz-adv-x="1234" 
d="M-18 152q-25 56 -16.5 124t49 139.5t92 130.5t113 96.5t112.5 37.5q36 0 63 -18q61 -41 82.5 -110t-10.5 -120q-29 -46 -83 -84t-109.5 -57.5t-99 -30t-66.5 -10.5q-16 0 -21 -27q-6 -22 -2 -43q4 -25 18 -37q50 -16 137 24t160.5 93.5t168.5 128t124 94.5q18 67 92 262
q57 155 60 166q11 47 66.5 172t130 245t118.5 120q26 0 74 -39q41 -33 41 -96.5t-43 -167.5q-28 -69 -80 -157.5t-100 -153.5q-25 -34 -49 -76q-8 -15 -35 -52t-31 -42q-76 -104 -86 -160q-5 -28 -10 -33q-9 -9 -20.5 -81t-14.5 -105q-8 -96 3 -132q11 -38 40 -47
q38 -13 98 6.5t126 62t111 75t87 67.5q18 15 22 15q8 0 -16 -37.5t-31 -44.5q-18 -17 -63 -69t-74 -77q-123 -106 -223 -106q-29 0 -62 10q-25 8 -46 21t-36 26t-27 35t-19 37.5t-12.5 43.5t-7.5 43t-3.5 47t-1.5 43.5v43.5q0 13 2 19q-51 -60 -110 -117t-128.5 -112
t-142.5 -88.5t-133 -33.5q-55 0 -110.5 41.5t-67.5 94.5zM377 549q-45 -21 -110 -73t-103 -95q40 -7 110 38t113 91q25 27 17 40q-5 8 -27 -1z" />
    <glyph glyph-name="o_w" unicode="ow" horiz-adv-x="1591" 
d="M66 -12q-106 18 -103 178q2 120 57.5 268.5t139.5 208.5q18 40 69 37q1 0 8 -1t11 -1q21 0 70.5 -7.5t78.5 -8.5q258 -8 346 24q4 4 5 4q13 17 22.5 20t24.5 -3q71 -28 92 -89q-1 -1 -2 -4t-2 -4q-36 -62 -123 -250q-3 -7 -15.5 -33t-20.5 -45t-18 -44.5t-14 -46
t-2 -33.5q55 19 266 338q9 13 26.5 39t31.5 47t24 39q3 5 8.5 18.5t10.5 21t12 9.5q34 8 66.5 -20.5t44.5 -63.5q11 -22 8.5 -41t-7.5 -26.5t-16 -22t-16 -27.5q-20 -47 -21 -159t27 -146q36 -13 88 57q156 211 170 422q3 51 -8 86q-6 18 -6 29q0 12 14 12q37 0 76 -61
q61 -75 47 -195q0 -2 -4 -28.5t-6 -47.5q-25 -124 -144 -276q-120 -156 -221 -150q-36 2 -76 31q-19 14 -33 29.5t-23 38.5t-14 35.5t-8.5 45t-4 40.5t-3.5 47l-2 27l-14 -23q-29 -49 -46 -76t-50 -73.5t-66 -77t-65 -44.5q-27 -12 -56 -12q-44 0 -83 27t-60 69
q-28 59 7 190t100 265q-92 -21 -156 -21q-62 0 -98 23q14 -41 14 -107q0 -181 -154 -362q-50 -59 -91 -78t-113 -18zM246 561q-42 -57 -100 -204.5t-58 -209.5q0 -34 6 -43q27 -3 70 52q65 83 101 160.5t36 166.5q0 51 -10 74q-7 1 -23 2t-22 2z" />
    <glyph glyph-name="t_s" unicode="ts" horiz-adv-x="849" 
d="M-109 469q-16 25 -10 63q5 30 20.5 40t65.5 14h51q2 0 7.5 2t7.5 2q4 0 16.5 2.5t18.5 3.5q3 9 8 27.5t8 27.5l57 185q31 93 65 190t56 157.5t25 69.5q14 41 47 41q42 0 79.5 -48t20.5 -89q-33 -82 -96 -266l-53 -158q-6 -18 -19 -56.5t-20 -58.5q3 0 28 5q21 4 38 5.5
t49.5 2.5t70.5 4q48 4 55 6q14 4 37 4q74 33 131 33q43 0 70 -21q24 -20 41.5 -68.5t11.5 -78.5q-13 -33 -26 -33q-8 0 -22 13t-21 16q-34 13 -96.5 -8.5t-110.5 -60.5t-43 -70q3 -17 24 -34.5t47 -32.5t54 -42t41 -59q92 28 147 28q44 0 41 -20q-25 -8 -178 -92
q-10 -68 -70.5 -114.5t-140.5 -70.5q-31 -9 -65 24.5t-50 75.5t-4 56q18 20 51 25q7 1 23 2t24 2q86 37 134 53q-3 7 -11 16q-18 18 -62.5 43t-77.5 51.5t-42 59.5q-23 86 23 164q-3 -1 -8 -2t-7 -2q-8 0 -24 -4q-20 -6 -43 -9l-23 -4q-2 2 -47 -12q-3 -1 -9 -2t-9 -2
q-174 -546 -166 -578q-6 -2 -19 -2q-31 0 -49 21t-22.5 60.5t-1.5 88.5t16 113.5t28.5 125.5t36.5 134h-2l-65 -18q-12 0 -14 2q-11 5 -27 19.5t-16 21.5q0 6 -5 16z" />
    <glyph glyph-name="t_y" unicode="ty" horiz-adv-x="1136" 
d="M12 -115q-32 1 -50 23.5t-22 64.5t0 91.5t18 118t29.5 129t37.5 137.5l-62 -17h-14q-10 1 -26.5 18t-16.5 25q0 9 -4 17q-14 27 -11 61q3 31 19 41.5t67 11.5l54 2q2 0 6 2t6 2q5 0 33 4q4 22 8 35l57 185q31 93 65 190t56 157.5t25 69.5q14 41 47 41q42 0 79.5 -48
t20.5 -89q-33 -82 -96 -266l-53 -158q-26 -75 -31 -92q32 0 133 9.5t111 13.5q5 2 28 2q21 13 57 -12.5t50 -49.5q15 -27 15 -39.5t-19 -38.5q-23 -26 -103.5 -183t-52.5 -157q9 0 37 25q107 96 239.5 242.5t215.5 259.5q41 9 88.5 -10.5t64.5 -53.5q7 -21 -18 -95.5
t-45 -117.5q-14 -31 -32 -83.5t-24 -67.5q-45 -110 -69 -183q-53 -157 -168 -462q-3 -9 -16 -43t-17.5 -45t-17.5 -41.5t-20.5 -43l-22.5 -37.5t-27.5 -36.5t-31 -29t-37.5 -26t-43 -16t-50 -10.5q-140 -7 -225.5 87t-83.5 232q0 10 2 28.5t9.5 38.5t17.5 19
q3 -2 21.5 -50.5t42 -104t61.5 -102t77 -46.5h7q37 0 74 36.5t66 94.5t46.5 101t30.5 84q17 54 38.5 112t51.5 133.5t43 110.5q12 32 43.5 93t50 111.5t18.5 96.5q0 2 3 12q5 14 3 16q-1 0 -4 -3q-17 -17 -107.5 -120t-164.5 -170.5t-127 -82.5q-31 -8 -65.5 7.5t-55.5 41.5
q-27 34 -29.5 89.5t16 119.5t46.5 127t64 125q-16 -5 -37.5 -13t-33 -12t-16.5 -4q-2 0 -11 -2t-13 -2q-3 0 -10 -2t-9 -2q-1 0 -4 -0.5t-9.5 -1.5t-10.5 -2q-20 -4 -23 -4q-12 -3 -35 -9.5t-34 -9.5q-181 -563 -172 -598q-6 -2 -19 -2z" />
    <glyph glyph-name="i_n" unicode="in" horiz-adv-x="1304" 
d="M-49 178q-1 125 76.5 315t128.5 226q20 9 62.5 -21.5t57.5 -62.5q-49 -54 -121 -229q-84 -207 -77 -284q3 -30 22 -30q29 -2 95.5 57t151.5 156t152.5 180t133.5 168q21 47 37 47q13 0 45.5 -25t38.5 -40q9 -20 -31 -113q-15 -34 -37 -99t-22 -73q0 -1 48.5 48t112.5 104
t95 61q53 11 91 -31.5t40 -91.5q0 -11 -12.5 -102t-10.5 -158t33 -65q25 -1 67.5 22.5t79 52t66.5 53.5t31 25q5 2 4 -7q-4 -32 -51 -96q-86 -117 -186 -134q-34 -6 -68 2q-113 25 -97 200q0 41 6 97q7 83 5 84q-20 10 -139.5 -133t-143.5 -197q-30 -67 -44 -81.5t-46 -10.5
q-22 3 -58 31q-24 18 -28 28.5t-2 44.5q4 62 71 273q-80 -116 -175.5 -227t-141.5 -148q-39 -29 -80 -29q-70 0 -125 72t-55 141zM266 883q-48 57 -12 137q15 34 26.5 47.5t26.5 13.5t39 -12q38 -19 44.5 -54t-19.5 -81q-37 -62 -80 -62q-17 0 -25 11z" />
    <glyph glyph-name="o_y" unicode="oy" horiz-adv-x="1427" 
d="M-23 94q-38 92 -13.5 207.5t92 228t149.5 177.5q15 12 28 12t27.5 -10t24.5 -21t27.5 -32.5t27.5 -32.5l35 26q5 6 22.5 0t28.5 -24q16 -25 92 -25q68 0 154.5 20t148.5 52q14 10 17 -2q21 -3 49 -26t37 -40q10 -20 12.5 -29t-0.5 -21.5t-16 -27.5q-23 -26 -103.5 -183
t-52.5 -157q9 0 37 25q106 96 238.5 242t215.5 260q41 9 89 -10.5t65 -53.5q7 -21 -18 -95.5t-45 -117.5q-14 -31 -32 -83.5t-24 -67.5q-45 -110 -69 -183q-53 -157 -168 -462q-3 -9 -16 -43t-17.5 -45t-17.5 -41.5t-20.5 -43l-22.5 -37.5t-27.5 -36.5t-31 -29t-37.5 -26
t-43 -16t-50 -10.5q-140 -7 -225.5 87t-83.5 232q0 11 2 29t9 38t17 19q3 -2 22 -50.5t42 -104t61.5 -102t77.5 -46.5h6q37 0 74 36.5t66 94.5t46.5 101t30.5 84q17 54 39.5 113t51.5 132t43 111q12 32 43.5 93t50 111.5t18.5 96.5q0 2 3 12q5 14 3 16q-1 0 -4 -3
q-17 -17 -107.5 -120t-164.5 -170.5t-127 -82.5q-31 -8 -65.5 7.5t-55.5 41.5q-25 31 -29.5 80.5t10 107.5t38 115.5t55.5 116.5q-79 -35 -178 -35q1 -6 1 -39.5t-1 -42.5q-11 -71 -33 -125t-72 -121q-138 -182 -280 -182q-53 0 -102 39.5t-75 91.5zM223 481
q-30 -38 -82 -156q-90 -203 -45 -235q10 -7 27 -4q74 12 172 125q54 63 81.5 136t22.5 132q-16 4 -24 8q-9 4 -26.5 11.5t-24.5 11.5t-16.5 12t-12 20t-0.5 29q-9 -6 -19.5 -19.5t-26.5 -36t-26 -34.5z" />
    <glyph glyph-name="o_f_t" unicode="oft" horiz-adv-x="1703" 
d="M23 49q-46 94 -33.5 219t70 253t135.5 206q18 18 41 18q6 0 12 -1t13 -4t12.5 -6t13 -8.5t12 -8.5t13 -10.5t12.5 -11t13.5 -12t12.5 -11.5l-12 -17q6 0 8 -2q36 -3 115.5 -1t184 6t106.5 4q33 0 42.5 7.5t24.5 43.5q64 154 132 271.5t177 268.5q13 17 35.5 40t59.5 53
t83 45t87 6q46 -14 69.5 -47.5t24 -71.5t-9 -75.5t-25.5 -65t-31 -35.5q-27 -14 -27 19q0 8 14 90q15 86 -16 90q-10 2 -24 -3q-41 -14 -112 -107.5t-135 -202.5t-113 -200t-54 -110h9q2 0 7.5 2t8.5 2q71 0 188 12q31 4 35 0q16 -2 39 0q53 162 119 340q14 41 49 41
q41 0 77 -49t19 -90q-38 -95 -86 -238q4 0 14 -1t15 -1q57 0 65 2q45 11 60 -4q24 -24 -23 -55t-86 -41q-13 -3 -44 -10.5t-42 -9.5l-22 -64q-72 -203 -128 -404.5t-48 -226.5q-8 -2 -21 -2q-40 0 -63.5 17t-30 56.5t-5 80.5t18.5 113.5t33 129.5t45 152l39 127
q-53 -18 -154 -18q-1 2 -4 1.5t-4 -3.5q-3 -3 -41 -7q-9 -1 -25.5 -1t-19.5 -1l-22 -4q-22 -13 -33.5 -32.5t-28.5 -63.5q-27 -72 -35 -98q-40 -125 -72 -284t-22 -193q3 -10 -4.5 -17.5t-19.5 -7.5q-25 0 -48 27.5t-28 85.5q-8 89 13 218.5t42 213.5q1 5 17.5 62t17.5 69
q0 3 -4.5 5t-14.5 1.5t-22 -1t-28.5 -2.5t-33 -3.5t-37 -3t-38.5 -2.5q0 -7 4 -31q23 -137 -72 -307q-36 -64 -64.5 -98.5t-74.5 -73.5q-39 -33 -92.5 -49t-87.5 -5q-37 12 -76.5 45.5t-60.5 69.5zM233 489q-30 -52 -72 -178q-74 -227 -13 -250q10 -4 22 -2q38 5 85 56
t77 98q11 17 28.5 55.5t36 89.5t22.5 90t-13 58q-32 11 -41 31q-5 13 -16.5 36t-17 38t-5.5 26l-33 -47q-2 -3 -14 -23q-7 -11 -23 -39t-23 -39z" />
    <glyph glyph-name="t_z" unicode="tz" horiz-adv-x="1046" 
d="M12 -115q-25 1 -41.5 14.5t-23.5 40t-9 59.5t3.5 78t13.5 89.5t22 100.5t27.5 104.5t30.5 107.5l-43 -10q-7 -3 -21 0t-35.5 17.5t-21.5 21.5q0 8 -8 16q-20 20 -17 62q3 31 23.5 41t91.5 18l70 4q4 0 12 4l55 183q31 93 65 190t56 157.5t25 69.5q14 41 47 41
q42 0 79.5 -48t20.5 -89q-33 -82 -96 -266l-53 -158q-14 -38 -17 -49q18 3 39 6q38 5 165.5 26t197.5 27q34 3 69 0q29 0 33 -4q2 -2 4.5 -3.5t3.5 -2.5q37 -12 52.5 -39t15.5 -78q-1 -32 -26.5 -73.5t-66.5 -82.5t-89.5 -83.5t-97.5 -78.5t-89.5 -64.5t-66.5 -45.5l-25 -18
q0 -11 148 14t324.5 59.5t201.5 37.5q-16 -68 -146 -136.5t-268.5 -107t-208.5 -37.5q-58 0 -103 44t-56 103q-24 122 235 306q144 105 144 132q0 13 -29 13q-35 0 -172 -31.5t-203 -40.5q-3 0 -41 -8q-190 -596 -182 -631q-6 -2 -19 -2z" />
    <glyph glyph-name="f_o_x" unicode="fox" horiz-adv-x="2131" 
d="M-10 389q-27 24 -41 47.5t-10 46.5t32 37q14 7 61.5 19t65.5 14q34 3 43.5 12t24.5 51q102 286 150 394q60 133 139 264q10 16 25 36t43.5 51t58.5 53.5t69.5 36t75.5 7.5q60 -18 82.5 -71.5t10 -111t-47.5 -97.5q-22 -25 -31 -25q-12 5 -3 38t7 71t-28 38q-12 0 -35 -10
q-46 -20 -101.5 -99t-101.5 -178.5t-85 -197.5t-61 -164.5t-20 -70.5q19 0 193 41.5t250 52.5l8 12q73 51 147 51q53 0 99 -35q72 6 151 14t147 14.5t85 8.5l32 11q4 -17 16.5 -90.5t23 -138t12.5 -66.5q0 -1 3.5 2t10 9.5t13.5 14.5t18 20t20 22l22.5 25l22.5 25
q129 144 191 144q43 0 63 -60q31 -94 -22 -108q-24 -7 -70 -53q-35 -35 -147 -166q-53 -62 -62 -96t19 -60q33 -29 79 -29q45 0 108 26t108.5 55t101 67.5t65.5 44.5q9 0 -0.5 -25t-32 -60.5t-46.5 -62.5q-67 -76 -160 -139t-168 -55q-68 7 -108.5 39t-75.5 100
q-7 -8 -30 -35t-39 -45t-43.5 -42.5t-53.5 -41.5q-15 -10 -35 -10q-33 0 -69.5 28.5t-55.5 57.5t-10 31q43 11 111 60.5t115.5 100.5t41.5 66q-26 67 -47 176l-12 113q-10 -1 -187 -21q13 -31 13.5 -53.5t-11.5 -89.5q-18 -95 -36.5 -140t-71.5 -116q-119 -158 -217 -176
q-32 -6 -53.5 -1t-59.5 28q-67 41 -94.5 79t-36.5 109q-9 72 2 129q10 52 76 178l12 15q-46 -20 -242 -93q-38 -14 -52 -20t-36 -17t-28.5 -18.5t-17 -23.5t-15 -33.5t-10.5 -46.5q-2 -11 -31 -119q-38 -140 -59.5 -334.5t-4.5 -237.5q4 -12 -3 -20t-21 -8q-28 0 -54 30
t-36 97q-27 179 26 516q22 132 23 139q6 25 2 43q-1 5 -21 2.5t-39 -6t-30 3.5zM741 375q-19 -40 -32.5 -103.5t-8.5 -89.5q6 -32 27 -32q17 0 43 26q27 27 35 27q18 0 75 90.5t76 148.5q26 79 21 117q-20 -3 -62 -8t-63 -8q-25 -21 -46.5 -51t-34 -54t-30.5 -63z" />
    <glyph glyph-name="o_g" unicode="og" horiz-adv-x="1409" 
d="M-23 94q-38 92 -13.5 207.5t92 228t149.5 177.5q15 12 28 12t27.5 -10t24.5 -21t27.5 -32.5t27.5 -32.5l35 26q5 6 22.5 0t28.5 -24q16 -25 92 -25q181 0 275 37q44 46 81.5 65t83.5 19q59 -4 74 -16q20 -17 29 -17q1 0 8.5 10t20 29t24.5 39q24 39 70 39q40 0 76.5 -29
t39.5 -59q3 -43 -6 -124t-29 -186t-52.5 -222.5t-72.5 -233t-92 -217.5t-108.5 -176t-125 -109t-138.5 -16q-128 35 -166 185q-25 96 -5 180q9 40 21 38q3 0 6 -4q11 -15 15 -35q2 -35 25 -99t64.5 -117t82.5 -38q63 23 137 151.5t130.5 287t96 310.5t43.5 230l2 39
q-12 -19 -43 -73.5t-56 -96t-64 -97t-74 -91.5t-78 -62t-84 -26q-30 0 -57 12q-43 20 -60 60.5t-9.5 90.5t26 99.5t47.5 99.5q-102 -4 -137 -4q1 -6 1 -39.5t-1 -42.5q-11 -71 -33 -125t-72 -121q-138 -182 -280 -182q-53 0 -102 39.5t-75 91.5zM223 481q-30 -38 -82 -156
q-90 -203 -45 -235q10 -7 27 -4q74 12 172 125q54 63 81.5 136t22.5 132q-16 4 -24 8q-9 4 -26.5 11.5t-24.5 11.5t-16.5 12t-12 20t-0.5 29q-9 -6 -19.5 -19.5t-26.5 -36t-26 -34.5zM932 575q-44 -26 -100 -108t-90 -156.5t-25 -89.5q9 -14 72.5 66t123 166.5t74.5 113.5
q14 27 10 29q-2 1 -16 0q-15 0 -49 -21z" />
    <glyph glyph-name=".notdef" horiz-adv-x="1071" 
d="M213 729q-12 81 8 145q40 123 138.5 185.5t232.5 62.5q33 0 115 -12q7 0 22 -5t16 -5q2 1 43 -13q6 -2 21.5 -3t28.5 -9q3 -2 6 -6q1 -2 2 -2q9 0 14 -5t6 -10v-5q12 -1 30 -24.5t26 -41.5q4 -9 12 -25t11 -22.5t7.5 -19t6.5 -21.5t4 -23.5t2 -31.5q3 -65 -2 -105
q-9 -73 -45.5 -140t-92.5 -112q-3 11 -12 19q-5 5 -27 45q-26 47 -52 89.5t-27 43.5q-5 8 -11.5 18.5t-10 16t-3.5 6.5q-6 10 -12 22q-4 8 -17 21q11 13 22 25t17.5 19t9.5 11l37 41q1 1 3.5 2.5t4.5 3.5t3 4q10 18 36 43l29 29q33 33 39 47.5t-4 28.5q-11 20 -29 20
q-6 0 -10 4q-3 3 -19.5 1t-25.5 -7q-3 -1 -10 -8q-11 -18 -54 -61q-7 -13 -12 -17q-9 -6 -41 -53q-4 -1 -23.5 -24.5t-19.5 -26.5q4 -4 -4 -4v-2q-4 7 -9 15.5t-7 10.5q-16 24 -23 31q-10 10 -10 16q-1 2 -4 7.5t-4 7.5q-1 3 -7 9.5t-8 8.5q-26 37 -41 66q-24 40 -36 48.5
t-33 2.5q-25 -8 -35 -29q-4 -8 -8 -10q-4 -3 -7 -21t-1 -28q4 -12 6 -12q18 -24 33 -48q12 -20 16 -22q2 -1 28 -37l27 -35q4 -7 21 -31t20 -24q4 0 4 -4q0 -2 4 -10l-18 -25q-8 -8 -14 -16q-6 -10 -25 -29q-10 -10 -14 -18q-2 -3 -13.5 -18t-28.5 -38t-28 -39
q-18 -25 -18 -32l-2 -9l-5 -10l-2 -8l25 -10l-4 -6q-4 -7 -1 -8q1 0 3 1q4 0 35 31l35 35q59 51 104 106q8 10 23 25q6 -6 8 -10q4 -10 11 -18.5t12 -12.5l5 -4l13 -16q6 -15 12 -21q2 -2 10 -14q38 -55 94 -111q19 -19 29 -24q3 0 8 -5q-134 -86 -250 -86q-74 0 -127.5 41
t-109.5 117q-3 4 -6.5 14.5t-5.5 12.5q-4 4 -6.5 7.5t-3 5.5t-0.5 4v2.5t-0.5 1.5t-2.5 1q-29 6 -57 162zM864 1102q-6 15 -3 35t11 20q7 0 11 4q1 0 8 1t10 1q15 -3 17 -8q4 -8 8 -8q5 -2 14 -17t6 -18v-14q7 -23 -14 -37q-20 -13 -37 0q-24 20 -31 41z" />
    <glyph glyph-name="uni0000" horiz-adv-x="0" 
 />
    <glyph glyph-name="uni0000" horiz-adv-x="0" 
 />
    <glyph glyph-name="uni000D" unicode="&#xd;" horiz-adv-x="512" 
 />
    <glyph glyph-name="space" unicode=" " horiz-adv-x="532" 
 />
    <glyph glyph-name="exclam" unicode="!" horiz-adv-x="522" 
d="M127 37q-8 31 2 110q30 250 127 494q14 36 45.5 108.5t46.5 108.5q7 19 22.5 54t22.5 53q6 15 18.5 49.5t20.5 52.5q7 16 17.5 46.5t17.5 47.5q13 33 45 33q27 0 57 -27.5t41 -60.5q10 -30 10 -52.5t-5.5 -34.5t-17.5 -34t-19 -41q-27 -74 -66 -143q-7 -13 -19.5 -45
t-19.5 -45q-11 -20 -33 -77.5t-43 -84.5q-8 -10 -31 -73t-30 -87q-8 -28 -23 -59.5t-22 -48.5q-6 -15 -15.5 -48t-17.5 -49q-6 -13 -23 -58t-26 -60q-10 -17 -34.5 -29t-37.5 -2q-3 6 -5.5 1t-4.5 1zM-35 -229q-10 20 -10 24q0 8 12.5 23.5t18.5 15.5t12 6t21.5 5t29.5 -9
q19 -11 19 -16q0 -2 12 -6q18 -6 31 -44t4 -61q-3 -7 -13.5 -11.5t-19.5 -4.5q-7 -4 -33 0q-41 5 -57 26q-22 27 -19 33q3 0 -8 19zM406 1309q0 10 4 2q0 -6 -2 -8q0 -2 -1 0t-1 6z" />
    <glyph glyph-name="quotedbl" unicode="&#x22;" horiz-adv-x="456" 
d="M319 977q-9 -30 -29.5 -66t-39.5 -39l-37 7q-14 14 -14 34q0 30 20 97.5t39 113.5q3 6 37 95q6 16 29 29t34 3q15 -14 24 -30t9 -36t-0.5 -34.5t-10 -38.5t-14 -34t-17.5 -36l-15 -30q-15 -30 -15 -35zM473 1192q4 4 8 16q22 49 54 49q19 0 31.5 -19.5t11.5 -47.5
q-1 -26 -46 -110.5t-67 -106.5q-8 -8 -25 -8q-24 0 -34 16q-7 7 -4.5 26t7.5 36.5t15 41.5t18.5 41.5t18 37.5t12.5 28z" />
    <glyph glyph-name="numbersign" unicode="#" horiz-adv-x="1222" 
d="M274 500q-5 11 -6.5 25.5t2.5 15.5q4 0 4 6q0 7 14.5 15.5t26.5 8.5q15 0 19 4q2 2 4 0q3 -6 18 -6q10 0 12 1.5t-1 7.5l-3 6l5 -4q17 -17 34 0q15 15 -4 20q-12 3 -26.5 18.5t-20.5 30.5q-8 19 -12 19t-2 16q2 10 2 25q0 20 16 20q11 0 11 6q4 4 24 4q13 0 45.5 8.5
t40.5 12.5q7 3 8 2q3 -2 12 5t9 11q0 5 8 21q1 2 2.5 5.5t2 5t1.5 4t0.5 2.5t-0.5 1q0 6 10 23q11 22 11 24q0 5 8 21q1 2 2.5 5.5t2 5t1.5 4t0.5 2.5t-0.5 1q-2 2 4 8t6 15q0 12 8 20q9 9 9 25q0 13 6 16q1 1 6 25q12 57 20 61q7 5 7 6q-2 2 2 3q3 1 6 1q11 0 18 7q3 3 5 4
t4.5 0t7.5 -4q10 -6 23 -19.5t13 -17.5q5 -9 11 -17q8 -13 8 -32q0 -27 -12 -58q-6 -14 -2 -18q3 -3 -5 -8q-13 -6 -20 -41q-4 -19 -8 -19q-3 0 -8.5 -17.5t-4.5 -21.5q2 -5 -4 -8t-6 -14v-15l31 2q33 4 43 7q8 4 25 4q20 0 32 2l19 2l14 26l51 109q0 4 6 10q4 4 4 10
q0 3 11 21q6 12 10 24q0 9 2 11q3 1 6.5 17.5t3.5 23.5q-4 4 2 4q4 0 4 6q0 14 15.5 28.5t29.5 16.5q24 3 31 0q8 -4 10 -4q5 0 9 -8q4 -7 14 -21q8 -12 8 -18q0 -9 6 -15q2 -2 2.5 -4.5t0.5 -5t-1 -9t-2 -13.5q-3 -26 -8 -31t-8 -16q-3 -9 -23 -50q-1 -3 -5 -9t-7.5 -12.5
t-5.5 -12.5q-5 -15 -14 -33q-12 -27 -11 -29q4 -4 62 -4q75 0 143 -8q13 0 37.5 -9t24.5 -14q0 -2 -4 -6q-3 -8 -5 -18q-1 -29 -15.5 -39t-53.5 -8q-30 0 -58 -4q-42 -7 -63 -7q-45 0 -47 -2q-6 -4 -13 -4.5t-8 2.5q-5 7 -17 3q-4 -1 -3 -3q0 -7 -12 -4q-16 0 -25 -9
t-27 -44q-7 -13 -2 -18q7 -7 140 4q23 1 27.5 -2.5t-3.5 -18.5q-8 -16 -8 -20q4 -4 -8 -17q-17 -17 -55 -22q-4 0 -9.5 -1t-9 -2t-4.5 -1q-3 -3 -20 -6q-19 0 -19 -7q-4 -2 -25.5 -6t-31.5 -4q-17 0 -31 -11t-14 -24q0 -3 -21 -24v-10q0 -11 -12 -35q-4 -8 -4 -13
q0 -4 -6 -10q-6 -3 -6 -8t-13 -31q-14 -25 -14 -30t-4 -9q-6 -6 -6 -16q-2 -9 -4.5 -16.5t-5.5 -11.5t-5 -3q-1 1 -2.5 -1.5t-3.5 -6t-3 -8t-2 -9.5t-1 -8q0 -8 -10.5 -37t-14.5 -32q-6 -3 -6 -12q0 -11 -9.5 -21t-19 -12t-14.5 6q-9 18 -14 22l-14 13l4 35q5 77 37 186
q1 5 6 21t6 20q1 3 2.5 8t2.5 8.5t1 5.5q0 10 6 13l2 6q-1 2 -0.5 4t2.5 8q4 12 3 13q-1 0 -3 -1q-8 -4 -20 -4q-16 -4 -27 -4q-41 -6 -59 -6q-22 0 -42 -18.5t-20 -40.5q0 -5 -10 -8t-10 -13q0 -5 -19 -43q-1 -2 -2.5 -4t-2.5 -3.5t-1 -2.5q-1 -1 -2.5 -5.5t-4 -10
t-5.5 -9.5q-8 -13 -8 -22q0 -2 -1 -4.5t-2.5 -6.5t-2.5 -6t-3.5 -8t-2.5 -8q0 -6 -7 -16q-4 -8 -4 -13q1 -1 -6 -12q-2 -3 -6.5 -8.5t-5.5 -7.5q-3 -6 -15 -4q-9 2 -28 17.5t-19 21.5q0 4 -4 8q-10 8 -10 47q0 28 31 104q16 43 4 45h-12q-7 2 -25 19t-18 24q0 5 -7 15z
M567 598q0 -2 33 -2q1 0 37 6q14 3 31 4.5t27 2t12 1.5q3 1 13.5 22.5t10.5 26.5q-3 4 -49 1t-64 -7q-5 -1 -12.5 -3.5t-9.5 -2.5q-8 -1 -18.5 -20.5t-10.5 -28.5z" />
    <glyph glyph-name="dollar" unicode="$" horiz-adv-x="698" 
d="M39 154q4 5 0.5 12t-2.5 10t34 12.5t74.5 20t42.5 10.5l15 4q27 8 42 14.5t24 17.5t11.5 18.5t8 30t10.5 38.5q4 14 9.5 30t8.5 23t4.5 17t3 13t-1 9t-4 7.5t-9 6t-13 6t-18.5 7t-23 10.5q-52 24 -87 67.5t-32 94.5q1 31 23 63t61.5 61.5t74 51.5t80 47.5t60.5 34.5
q27 17 36.5 23.5t16.5 15t6.5 12t0 18t2.5 29.5q6 35 67.5 134.5t89.5 95.5q5 -2 16.5 -4t21.5 -7t18 -18q17 -27 18 -62.5t-7.5 -62t-17 -51t-6.5 -31.5t17.5 -8t34.5 -1.5t38 -19.5t27 -57q7 -55 -7.5 -72t-68.5 -20q-33 -2 -58 -19t-55 -54.5t-40 -47.5q-13 -13 -30 -61
t-15 -66q1 -6 21 -23.5t45.5 -45t37.5 -56.5q37 -88 -4 -162q-20 -30 -30.5 -42t-30 -23t-33.5 -21l-66 -37q-14 -7 -51 -19.5t-43 -16.5q-22 -15 -43.5 -139.5t-21.5 -184.5q0 -4 -1.5 -14.5t-1.5 -14.5q-2 -8 -5 -11t-15 -7q-27 -9 -41 2q-22 18 -45 72q-16 47 -3 151
t11 109q-2 7 -73 15t-85 30q-2 4 -9 12.5t-11.5 14.5t-3.5 8zM338 647q-32 -22 -30 -32q1 -7 18 -13q27 -11 46 -6.5t29 31.5q26 69 -13 53q-18 -7 -50 -33zM459 365q0 -1 -4 -10t-6 -16t0 -9q14 3 45 26q41 27 16 47q-16 13 -25 13q-2 0 -4 -0.5t-4 -2.5l-3.5 -3.5t-2.5 -5
t-2 -6t-2.5 -7.5t-2.5 -8t-2.5 -9t-2.5 -9z" />
    <glyph glyph-name="percent" unicode="%" horiz-adv-x="1150" 
d="M201 -158q-6 4 -3.5 34t5.5 47.5t8.5 47t5.5 31.5q8 47 44 152.5t52 121.5q3 4 26 56l23 51q8 19 25.5 52t24.5 52q5 15 12.5 29t18 33.5t16.5 30.5q15 27 40 71.5t31 55.5q7 13 46 85t61 109q2 4 11 22.5t14 24.5q20 24 56.5 93.5t53.5 111.5q11 26 14 37t2 14.5t-9 9.5
t-13 13q-20 25 -17.5 35.5t33.5 19.5q34 11 65.5 38t78.5 30q40 -2 69 -86q5 -13 1 -43t-11 -37q-6 -6 -6.5 -10t-5.5 -11q-26 -35 -58 -104q-47 -99 -110 -201q-19 -31 -51.5 -91.5t-40.5 -74.5q-7 -12 -16 -33t-13 -30q-6 -13 -41 -70q-15 -23 -47 -83.5t-47 -82.5
q-53 -83 -62 -108q-6 -17 -20.5 -44t-20.5 -42q-13 -32 -44 -100t-46 -107q-4 -10 -14 -46.5t-19.5 -67.5t-13.5 -38q-2 -4 -6 -11t-6 -10t-5.5 -7t-7.5 -6t-10 -3q-20 -4 -42.5 8.5t-30.5 30.5zM569 -12q-22 30 -29 56t-4 41t13 44.5t14 48.5q5 14 1.5 25t-3.5 14
q-1 7 35 25t70.5 32t48.5 19q9 3 29.5 10.5t32.5 11.5t29.5 8t33.5 5q25 1 45 0.5t38.5 -9t34.5 -26.5q44 -65 41 -131q-1 -26 -28 -61t-56 -60q-155 -138 -227 -119q-87 23 -119 66zM293 975q-33 113 29 219q47 88 178 127q45 13 89.5 -4t55.5 -62q9 -36 -7 -53t-41.5 -18
t-47.5 -6.5t-23 -20.5q-1 -12 17.5 -44t33.5 -80.5t7 -102.5q-1 -1 -9 -20t-16 -35.5t-12 -20.5q-23 -23 -66 -23q-50 0 -106 25q-23 10 -45.5 34t-24.5 38v2q-6 24 -12 45zM426 1077q-19 -63 -8 -90q30 -18 34 27q4 40 -11 66q-3 7 -7 7q-6 0 -8 -10zM774 176
q-1 -4 -2 -10.5t-1 -14.5t2.5 -12.5t8.5 -3.5q8 2 23 17q3 3 12 11q38 36 30 46q-5 6 -26 6q-34 0 -39.5 -5t-7.5 -34z" />
    <glyph glyph-name="ampersand" unicode="&#x26;" horiz-adv-x="837" 
d="M281 115q-72 31 -115.5 105.5t-34.5 156.5q9 77 182 188q6 3 17 9t15.5 9t9 9t1.5 14.5t-12 20.5q-31 40 -31 127q1 28 12 55.5t33 54.5t37.5 43t42.5 41q43 40 137 78q25 10 46 82q7 24 23.5 56.5t21.5 45.5l7.5 15t10 20.5t4.5 11.5q3 21 10.5 23t10.5 8
q8 14 14.5 17.5t7.5 5.5q1 3 6.5 2.5t11.5 -2t11 1.5t17 -1t16 -12l2 -4q13 -24 14.5 -49t-3 -41.5t-15.5 -48.5q-2 -5 -16 -35t-15 -37q-2 -12 -9.5 -25.5t-12.5 -20.5t-6 -16t9 -13q7 -4 12.5 -9.5t9.5 -14t7 -14t5.5 -17t3.5 -16t3 -17t2 -15.5q4 -45 2 -57.5t-13 -24.5
t-13 -18q0 -4 -12 -16q-13 -13 -13 -21q-5 -8 -26 -8q-16 -1 -15 10q2 14 -5.5 15t-12 -0.5t3.5 20.5q13 31 15.5 58t-12.5 42.5t-50 3.5q-5 -2 -19 -6t-17.5 -5.5t-13 -6t-16.5 -10.5t-16 -15q-2 -2 -7.5 -9.5t-10 -13t-5.5 -5.5q-13 -10 -24 -19t-21.5 -19.5t-17 -18
t-19.5 -22t-20 -22.5q-11 -14 -7 -27.5t19 -23.5q16 -11 38 -16t36.5 -5.5t43.5 0.5t38 1q59 -3 74 -68q6 -25 6.5 -41.5t-3 -24.5t-13.5 -11.5t-20 -3.5t-27.5 -0.5t-30.5 -2.5q-40 -6 -134.5 -49.5t-128.5 -73.5q-54 -47 -64 -65q-22 -41 54 -74q73 -29 125 -29
q63 0 141 35q11 3 50.5 22t74.5 35.5t37 16.5q8 -2 -10 -72q-7 -28 -13.5 -40.5t-17.5 -23.5t-20 -24q-15 -25 -59.5 -40t-84.5 -28.5t-47 -33.5q-4 -11 -16.5 -58t-25.5 -80.5t-29 -44.5q-6 3 -13 -4q-6 -6 -10 -6q-4 2 -10 -4q-4 -4 -7 -2.5t-16 10.5q-18 11 -18 19
q-6 6 -10 8q-6 3 -6 12q0 8 -3 10q-6 14 -0.5 41.5t11.5 46.5q3 14 7.5 30t4.5 21t1.5 11.5t-4.5 9t-10 5t-19.5 8t-28.5 10.5z" />
    <glyph glyph-name="quotesingle" unicode="'" horiz-adv-x="278" 
d="M205 922q-6 15 -6 22t6 27q14 47 37.5 119.5t29.5 80.5q8 12 4 19q0 4 -0.5 5.5t1.5 8t4 11t6.5 15t7.5 19.5q23 54 63 80q12 8 37 8q21 2 28.5 -4.5t27.5 -42.5q19 -36 0 -76q-11 -22 -19 -26q-6 -3 -6 -10q0 -9 -14 -23q-15 -15 -15 -22t-23.5 -55t-31.5 -56t-12 -21
q-3 -11 -17 -18q-8 -3 -8 -14q0 -7 -12 -23l-12 -16q0 -7 -29 -15q-11 0 -23 -8l-14 -8q-2 0 -10 23z" />
    <glyph glyph-name="parenleft" unicode="(" horiz-adv-x="679" 
d="M127 -158q-250 241 -18 873q75 203 118 274q10 17 43.5 73.5t50 82t46.5 69t59 75.5t61 59q24 21 36 30.5t26 15t19.5 5.5t28 -1t38.5 -1q15 0 25.5 -12t14 -22.5t7.5 -29.5q6 -32 7 -49t-6 -25.5t-14 -10.5t-18 -5t-16 -8q-9 -8 -24 -17.5t-23 -15.5
q-124 -95 -244.5 -328t-173.5 -423q-19 -68 -31.5 -152.5t-9.5 -179.5t31 -144q21 -37 63.5 -55.5t86 -18t85.5 8.5q3 1 18.5 6.5t32.5 10.5t27 5t13 -6t-5 -20q-6 -10 -8 -19t-5.5 -15.5t-14.5 -16.5q-76 -70 -179 -70q-90 0 -147 57z" />
    <glyph glyph-name="parenright" unicode=")" horiz-adv-x="649" 
d="M-66 -119q-41 21 21 70q36 30 69.5 62t70 74.5t56 66.5t63 80t56.5 73q17 22 68 83.5t77.5 97t62.5 91.5t54.5 108t22.5 104q9 107 -28.5 189.5t-118.5 154.5q-30 26 -39 26t-17 -8q-10 -11 -25 -13t-22 11q-5 11 -10 12q-1 0 -2 2q-7 24 -4 75.5t10 74.5q9 16 23 18
q35 5 57 0.5t51 -22.5q63 -39 153 -175.5t111 -209.5q26 -87 23 -166.5t-41 -163.5q-34 -74 -155.5 -236t-162.5 -167q-2 0 -7.5 -9t-13 -20t-11.5 -14q-15 -12 -27 -26t-24.5 -32t-22.5 -29q-23 -26 -42.5 -41t-43.5 -30t-43 -31q-2 -2 -22.5 -17.5t-35.5 -26.5t-35.5 -25
t-37 -21.5t-25.5 -7.5q-3 0 -7 2t-11 7t-15 9z" />
    <glyph glyph-name="asterisk" unicode="*" horiz-adv-x="700" 
d="M287 897q-17 15 -25 28t-5.5 27.5t5.5 22.5t15 27.5t16 27.5q13 24 -3 63t-14 56q5 16 68 16q27 0 45 14t39 42q57 90 86 129q11 17 44 44t50 27q28 0 47 -32q9 -17 13 -34.5t4 -27t3 -16t11 -6.5q20 0 98 34q26 11 31 11t7.5 -2t3 -7t0.5 -9t-0.5 -11.5t-0.5 -11.5
q0 -16 -10 -28t-25.5 -23t-21.5 -19q-12 -15 -41.5 -29t-40.5 -24q-46 -42 -14 -260q1 -4 2.5 -14t3 -17t3 -17t1 -17t-1.5 -15t-4 -12.5t-8 -7t-13.5 -1.5t-19.5 6q-10 4 -73 66.5t-75 71.5q-2 1 -11.5 9t-14 11t-12.5 7.5t-15 4t-14 -5.5q-16 -12 -48.5 -61t-54.5 -49
q-18 0 -30 12zM506 1083q-11 -15 -1 -32t29.5 -27.5t26.5 -1.5q4 5 6 26t-4 40.5t-24 15.5q-20 -8 -33 -21z" />
    <glyph glyph-name="plus" unicode="+" horiz-adv-x="872" 
d="M113 451q-13 52 -2 63q0 1 1.5 4t3.5 8t3 9q2 15 20 22q13 4 13 8q0 2 8 2q4 -4 12 4t10 7q1 -1 -2 -5q-4 -7 48 -1q30 4 59 10q73 15 88 10h12q4 20 4 22q1 4 2.5 6.5t3 3t2.5 -0.5q6 -3 7 8q5 14 12 16q8 6 2 10q-6 3 -4.5 10.5t10.5 10.5q6 6 4 12q-3 8 25 84
q47 123 65 141q8 8 8 17q0 6 7 6q6 0 6 4q3 10 61 43q27 15 47 12t29.5 -12.5t13.5 -32.5q4 -21 3 -26.5t-9 -20.5q-28 -56 -29 -59q-13 -38 -20 -45q-5 -5 -49 -125q-17 -50 -27 -72q68 0 86 -2q3 0 25 -3t33 -5q10 -2 29 -4.5t22 -3.5q11 -2 26 -4t25 -4q17 -3 14 -15
q-2 -10 -11 -34t-15 -31q-9 -12 -74 -22t-131 -9q-26 0 -41 -6q-14 -7 -17 -2q0 6 -4 2q-1 0 -3.5 -0.5t-8 -1.5t-10.5 -2q-36 -98 -39 -109q-33 -117 -64 -170q-20 -51 -32 -108q-6 -29 -15 -31q-8 -5 -16 -23q-3 -6 -4 -6.5t-4 2.5q-6 6 -8 6q-9 0 -14 5t-9 22
q-13 49 18 158q7 23 11.5 46.5t6 35.5t-0.5 14q-5 2 14 74q10 38 10 45q0 6 2 14q-8 -2 -29 -6.5t-28 -5.5q-36 -6 -37 -6q-12 3 -26 -6q-13 -9 -17 -5q-6 0 -10 -4t-33 -6.5t-39 0.5q-9 5 -12 10q-3 7 -8 7q-4 0 -4 4q0 12 -6 37z" />
    <glyph glyph-name="comma" unicode="," horiz-adv-x="391" 
d="M90 -63q-6 2 -12 2q-23 1 -38 9t-15 17q0 5 16 21q33 36 22 63q-7 16 11 47q2 3 3 4t2.5 0t4.5 -4q4 -4 4 -2q0 5 10.5 9t16.5 1t12 -12q7 -9 16 -12q8 -1 9 -4q0 -1 8 -25q8 -23 6 -35q0 -4 -1 -11l-1 -7q-1 -4 -8.5 -13.5t-10.5 -15.5l-6 -8q0 -3 -11.5 -9.5
t-16.5 -6.5q-1 0 -13 -6q-7 -3 -8 -2z" />
    <glyph glyph-name="hyphen" unicode="-" horiz-adv-x="593" 
d="M92 473q-6 3 -4.5 9t10.5 34q3 9 17 20.5t26 14.5q6 2 101 -10q134 -17 223 -11q33 2 72 2q8 -2 8.5 -3t-6.5 -9q-12 -12 -9 -22q0 -21 -18.5 -43.5t-36.5 -22.5q-8 2 -30.5 -6t-22.5 -12q-3 -3 -6 0q-1 2 -5.5 1.5t-7.5 -3.5q-14 -14 -71 -11q-19 0 -27 -4q-4 -4 -20 -4
q-17 0 -25 -4q-7 -3 -48 -4.5t-50 0.5q-7 0 -21.5 12t-17.5 19q-11 16 -14 18q-11 7 -11 23t-6 16z" />
    <glyph glyph-name="period" unicode="." horiz-adv-x="376" 
d="M76 4q-31 6 -31 90q0 53 41 80q23 16 45 14q24 -3 35 -20q10 -17 22 -25q11 -8 15 -15.5t-2 -10.5q-7 -4 -4 -19q0 -21 -12.5 -47.5t-28.5 -32.5q-54 -18 -68 -18q-4 0 -12 4z" />
    <glyph glyph-name="slash" unicode="/" horiz-adv-x="284" 
d="M-96 -76q-7 17 -7 20.5t7 24.5q13 40 30 97q19 64 25.5 78.5t15.5 11.5q6 -2 6 -1t-6 5q-7 4 -7 10t5 37q5 27 21 76q1 4 9.5 27.5t10.5 31.5q6 22 39.5 120t44.5 126q41 95 78 209q8 24 12 32q31 77 31 111q0 3 6 21q21 70 21 92q4 20 8 24q6 6 6 17q3 21 6 26q4 4 8 31
q10 64 45 70q57 9 70 -9q8 -12 14 -18l9 -10q0 -5 12 -21q21 -26 2 -112q-10 -49 -25 -101t-20 -55q-1 0 -6 -18q-12 -62 -27 -86q-8 -13 -8 -29q0 -11 -8 -27q-7 -14 -4 -14q1 0 -2 -6l-4 -8t-3 -9q0 -10 -8 -18q-6 -6 -10 -27q-3 -20 -6 -20q-2 0 -14 -35q-7 -24 -23 -61
q-12 -24 -12 -29q0 -6 -4 -6q-6 0 -6 -8q0 -2 -9 -29q-48 -145 -59 -148q-8 -8 -14.5 -22t-6.5 -23q0 -10 -4 -18q-1 -1 -10 -23q-7 -18 -10 -18q-4 0 -4 -10t-6 -13q-9 -4 -9 -16q0 -10 -9.5 -35.5t-20.5 -44.5q-6 -8 -2 -12q3 0 -9 -12q-8 -8 -8 -23q0 -8 -10 -18t-10 -17
q0 -9 -27 -55q-26 -46 -26 -47q0 -3 -16 -14t-19 -11q-35 20 -43 39z" />
    <glyph glyph-name="zero" unicode="0" horiz-adv-x="618" 
d="M-2 356q-2 27 51 181q3 8 16 37.5t21.5 53t5.5 34.5q-5 12 -3 23.5t4 14.5t8.5 13.5t11.5 21.5q4 8 6.5 12.5t5.5 9t6 9.5q4 7 16 19t13 16q8 36 47.5 76.5t81.5 66.5q85 43 119 43q11 0 47 -8q22 -6 68.5 -60t64.5 -92q23 -51 29 -158t-11 -173q-9 -38 -16 -52
q-2 -2 -6 -24q-5 -25 -11 -31q-8 -8 -8 -18q0 -13 -6 -25q-2 -3 -5 -9t-7 -15t-6 -13q-2 -5 -8.5 -20.5t-8.5 -20.5q-17 -32 -37 -69q-2 -4 -6 -9t-6 -8t-2 -4q-8 -19 -20 -31q-6 -6 -30 -30.5t-34.5 -35t-34 -30t-40.5 -28.5t-40 -16t-45 -7q-33 1 -61.5 8.5t-49.5 19
t-38 31.5t-28.5 38t-20.5 46.5t-14 50t-9.5 54t-6 53.5t-3.5 55zM141 293q-4 -44 10 -90.5t48 -46.5q30 0 66.5 35.5t66.5 87.5t52.5 97.5t33.5 76.5q10 41 20 51q3 3 8 24q0 14 5 19q9 27 16 108q2 25 1 48.5t-4.5 40.5t-8.5 16q-5 0 -15 -15q-9 -14 -22 -14
q-53 -11 -92 -63q-6 -7 -14.5 -20t-14.5 -19q-12 -12 -21.5 -25t-20.5 -29.5t-19 -27.5q-38 -52 -63.5 -120.5t-31.5 -133.5z" />
    <glyph glyph-name="one" unicode="1" horiz-adv-x="331" 
d="M287 1020q28 28 75 12q26 -10 49 -37t23 -53q0 -21 -12 -61q-3 -11 -9.5 -30t-11 -34.5t-8.5 -30.5q-55 -219 -153 -512q-14 -40 -37.5 -121.5t-36.5 -121.5q-10 -31 -37 -31q-57 0 -49 86q19 154 103 494t104 440z" />
    <glyph glyph-name="two" unicode="2" horiz-adv-x="841" 
d="M74 20q-21 11 -42 46.5t-24 60.5q2 41 64 113q18 22 52.5 53.5t41.5 38.5q23 23 62.5 70t62.5 69q28 28 85.5 77t94 90t64.5 95q19 36 29.5 65.5t11.5 56t-13.5 40.5t-44 20t-80.5 -6q-58 -13 -103.5 -57t-94.5 -113q-7 -10 -12.5 -22.5t-16.5 -26.5q-9 -11 -14 -13
t-23 1q-26 4 -31 12q-11 8 -17 23t-5 28q6 53 35 95l10 14q57 78 134.5 128t162.5 50q51 0 106 -22q68 -27 101.5 -87.5t31.5 -128t-29.5 -134.5t-74.5 -111q-64 -60 -94 -94q-74 -87 -139 -138q-23 -18 -71.5 -64.5t-45.5 -55.5q2 -10 264 53q52 12 144 19t137 1
q24 -3 28.5 -24.5t-8.5 -34.5q-9 -12 -29.5 -24t-36.5 -18.5t-44.5 -16.5t-34.5 -13q-37 -15 -111 -33t-111 -32q-54 -21 -146.5 -45.5t-137.5 -24.5q-52 0 -88 20z" />
    <glyph glyph-name="three" unicode="3" horiz-adv-x="765" 
d="M135 6q-35 14 -61 42t-23 61q0 34 19 34q7 0 24 -7t23 -9q13 0 21 -1t27 5.5t30.5 10.5t32.5 14t33.5 16t33 17.5t30 17t26 15t20.5 11.5q38 21 110 80t62 78q-7 12 -58 20.5t-77 8.5q-7 0 -33 1.5t-34 2t-29 2t-32 3t-28.5 4.5t-33 7t-32.5 9q-38 11 -63.5 49t-28.5 80
q-3 32 48.5 82t96 80t89.5 57q117 70 119 83q2 8 -37 -3q-6 -2 -27.5 -8t-30 -8.5t-24.5 -8t-29 -11.5t-27 -14q-24 -13 -49.5 -35t-36.5 -30q-15 -12 -32 -12q-20 0 -37 14t-25 35q-2 4 -5 11.5t-4 10.5t-3 8.5t-1.5 9t1.5 8.5t4 9.5t8 9.5q60 64 191 110.5t235 53.5
q35 1 67 0.5t60.5 -16t42.5 -47.5q8 -22 8.5 -42t-7.5 -37t-18 -31.5t-28 -29t-31.5 -23.5t-33.5 -22q-11 -7 -34.5 -22t-43.5 -27.5t-35 -19.5q-18 -8 -46.5 -27t-37.5 -24q-20 -11 -52 -34.5t-44 -31.5q-27 -18 -29 -21q-3 -7 13 -9q2 -1 5 -1q21 -2 93 -5t119.5 -12
t88.5 -30q54 -28 79.5 -80.5t13.5 -109.5q-22 -104 -228 -230q-12 -7 -21.5 -11.5t-21 -9.5t-20.5 -9q-3 -1 -31 -15t-35.5 -17.5t-32.5 -14t-38 -13t-33.5 -6.5t-37.5 -2.5t-34 6.5z" />
    <glyph glyph-name="four" unicode="4" horiz-adv-x="743" 
d="M51 651q-4 33 51 97t104 107t93 77q17 12 61 57q15 15 43.5 28t51.5 13q28 0 41 -29q9 -20 11 -45t-7 -43q-4 -7 -17.5 -20t-35 -31t-23.5 -20q-19 -17 -72 -59.5t-84 -73.5q-2 -2 -8.5 -8t-9 -8.5t-7.5 -8.5t-5.5 -9t-3 -9t1.5 -9q79 -8 268 21q26 4 39 9.5t16.5 10
t10 21.5t12.5 29q11 21 32.5 70.5t36.5 76.5q10 19 30 51t28 47q6 11 59 11q28 2 57 -89q5 -15 0.5 -30.5t-18.5 -40t-16 -27.5q-84 -168 -113 -223q-6 -11 -26.5 -56.5t-33.5 -66.5q-23 -37 -77 -186q-11 -29 -38.5 -79.5t-37.5 -78.5q-2 -5 -9 -31t-14.5 -47t-11.5 -24
q-6 -4 -8.5 -9.5t-11.5 -7.5q-6 -2 -10.5 -4.5t-7 -3.5t-5.5 0q-17 5 -23.5 22t-8.5 47t-3 35q-15 74 90 334q4 10 11 23t12 22.5t9.5 20t4 17t-4 11.5t-14 7t-28.5 0q-26 -3 -65 -9t-70.5 -9t-69.5 -1q-59 3 -114 39.5t-62 91.5z" />
    <glyph glyph-name="five" unicode="5" horiz-adv-x="882" 
d="M109 727q-18 15 -24 67t7 72q6 10 26 22.5t27 12.5q52 -5 159 2.5t126 7.5q73 4 186 -7t160 -32q29 -16 0 -69q-8 -15 -27.5 -23t-30 -9t-38.5 -3q-20 -1 -107.5 -3t-136.5 -7q-23 -2 -35.5 -5t-16 -7t-3 -7.5t2.5 -9.5t1 -10q-1 -5 -55.5 -64t-55.5 -84q0 -14 24 -32
t63.5 -36t76 -32.5t75 -28.5t46.5 -18q82 -40 120 -80t56 -121q11 -40 9 -65t-25 -56q-29 -38 -155.5 -70t-194.5 -32q-100 0 -195 49q-27 13 -57 38.5t-25 45.5q9 31 20.5 43t39.5 4q82 -24 151 -24q71 0 170 26q46 13 69.5 22.5t31 21.5t-13 26t-68.5 31q-15 5 -48.5 20
t-44.5 19q-167 63 -235 210q-14 33 -17.5 72.5t7.5 73.5q3 8 8 19q5 13 3 13h-3q-25 -7 -53 17z" />
    <glyph glyph-name="six" unicode="6" horiz-adv-x="602" 
d="M23 137q-45 144 10 305q41 122 99 221.5t144 198.5q10 11 27.5 32.5t26.5 32t26.5 24.5t38.5 26q15 7 37.5 6t36.5 -6q11 -4 30 -29.5t21 -34.5q1 -10 -19.5 -36t-31.5 -31q-7 -4 -16 -13t-20 -21.5t-15 -16.5q-75 -75 -115.5 -139t-97.5 -181q-11 -22 -18 -37
t-12.5 -27.5t-8 -20t-3 -12.5t1 -7t5.5 -2t13 3t22.5 8.5t25.5 8.5q58 14 86 14q49 0 95 -26q48 -27 65.5 -84t-12.5 -103q-7 -10 -12 -11q-1 0 -4 -15q-3 -6 -31 -42.5t-35 -43.5q-42 -42 -84 -60.5t-98 -17.5t-107.5 42t-70.5 95zM168 201q-24 -29 -13 -55.5t38 -26.5
q18 0 30 12q7 7 20 18t19 17q76 76 72 137q-33 0 -41 -4l-4 -4l-39 -27t-45.5 -33.5t-36.5 -33.5z" />
    <glyph glyph-name="seven" unicode="7" horiz-adv-x="483" 
d="M61 20q-15 72 86 289q6 13 9 19q2 4 47 86q40 68 86 186q6 12 36 65t48 94t14 64q-4 6 -37.5 -1.5t-83.5 -19.5t-80 -14q-17 0 -22 3.5t-12.5 13.5t-20.5 20q-7 5 -16 19.5t-9 21.5q-1 4 -3 16.5t-2.5 18t0 14.5t4.5 15t12 10q3 1 45.5 12t50.5 13q32 7 42 8t20 0.5
t42 1.5q6 0 34 2t40 2.5t37.5 0.5t40 -3t32.5 -10t31 -17q21 -20 28 -31t9 -27t6 -28q3 -40 -64 -188t-103 -203q-3 -4 -11 -15.5t-14 -20.5t-8 -13q-17 -33 -58 -104t-59 -109q-24 -46 -65 -109q-8 -13 -18.5 -36.5t-20.5 -36.5q-23 -33 -70 -27q-11 2 -15 5t-8 13z" />
    <glyph glyph-name="eight" unicode="8" horiz-adv-x="741" 
d="M98 137q-10 27 -13.5 74t-0.5 76q4 26 0 26q-2 0 -2 9q3 9 6 6q3 -1 3.5 1.5t2.5 14.5q0 20 26 69.5t44 67.5q10 9 12 17q3 11 12 16q5 3 23 23t18 22q-10 15 -22 31q-42 58 -37 117q0 5 0.5 9t1 7t2 6.5t2 5t3.5 6l4 6t5.5 8t6.5 9.5q48 68 132.5 122.5t172.5 82.5
q74 23 110 10q17 -7 37 -23.5t23 -29.5q4 -17 10 -17q3 -5 10 -34t6 -35q0 -11 2 -17q4 -8 -2 -8q-4 0 -4 -20q-3 -22 -16 -43q-14 -21 -14 -29q-5 -10 -7 -12q-7 -8 -14 -27q-7 -20 -14 -27q-6 -6 -17 -28q-2 -6 -22 -35q-15 -22 -15 -23q-1 -6 -16 -30q-28 -46 -35 -62
q-6 -12 -6 -16t6 -8q20 -14 37.5 -40.5t22.5 -45.5q3 -7 8.5 -20.5t7.5 -16.5q9 -19 12.5 -52t-2.5 -44q-5 -10 -12 -31q-26 -74 -101 -127.5t-159 -69.5q-14 -3 -26.5 -4.5t-17.5 -2t-7 -1.5q-6 0 -27.5 5.5t-24.5 8.5q-6 6 -20 6q-7 -4 -16 9q-4 8 -13 8q-1 0 -9.5 6
t-17 12.5t-10.5 7.5q-9 7 -25.5 30.5t-23.5 43.5zM209 272q-15 -61 -12 -88t26 -39q40 -21 103 -4q77 21 125 72q60 66 36 113q-7 14 -11.5 20.5t-8.5 7t-8 -3.5q-6 -6 -10 -18q-2 -6 -10.5 -21.5t-12.5 -19.5q-4 0 -8 2q-4 4 -23 8q-24 4 -28 21.5t4 78.5q4 35 2.5 44.5
t-13.5 17.5l-14 8l-27 -22q-25 -21 -48 -49.5t-25 -37.5q0 -5 -13 -22q-13 -19 -24 -68zM285 694q-9 -8 -6 -16t17 -22t28 -23q16 -11 28 -6q37 14 66 -4q18 -18 18 -23q3 -13 18 16q3 6 7 13q17 34 24 41q3 3 6 9t7.5 15.5t7.5 14.5q12 24 20 36q36 57 47 95q3 9 -0.5 10
t-15.5 -2q-15 0 -31 -8q-12 -6 -20 -6q-21 0 -108.5 -52.5t-98.5 -68.5q-10 -15 -14 -19z" />
    <glyph glyph-name="nine" unicode="9" horiz-adv-x="657" 
d="M219 2q-26 1 -62 17.5t-61 44.5t-16 53q3 7 3 16t-1 14l-2 5q14 12 26 12q4 0 29 -14q17 -11 39 -11q39 0 84 37.5t81.5 92.5t63 102t39.5 80q39 102 25 106q-6 0 -18 -7t-37.5 -26t-38.5 -28q-46 -27 -78 -27q-61 0 -98 49q-12 16 -21 25q-20 20 -26 53q-25 120 40 240
t185 172q62 26 94 26q18 0 102 -24q33 -9 62 -11q14 -1 20 -6t27 -36q12 -17 20 -29q4 -4 -4 -54t-12 -65q-13 -45 -29.5 -132.5t-27.5 -127.5q-58 -206 -133 -318q-5 -8 -23 -35t-23.5 -34.5t-20.5 -28t-24 -29.5t-25 -24t-32.5 -26t-36.5 -23q-19 -12 -33 -24
q-9 -9 -32 -7q-15 1 -25 2zM264 627l2 -6q3 -9 13 -9q28 0 92 64l14 14q40 40 49 53t21 48q8 24 14 40q2 6 6 15t7 15t5.5 13.5t2.5 11t-2 8t-9 4.5t-18 -1q-79 -13 -148 -109q-16 -21 -30.5 -74t-18.5 -87z" />
    <glyph glyph-name="colon" unicode=":" horiz-adv-x="299" 
d="M188 795q13 23 13 65q-2 17 9 46t23 38q12 10 37 10q41 0 54 -22q23 -39 2 -107q-9 -29 -14.5 -37.5t-20.5 -19.5q-39 -27 -47 -27q-2 2 -11 -2q-20 -9 -34 25q-11 26 -11 31zM96 350q-19 12 -27.5 48t1.5 59q24 53 67 53q4 -4 35 0q30 3 37 -4q2 -2 6.5 -4.5t5.5 -3.5
q26 -16 -10 -66q-6 -9 -18 -41q-19 -57 -68 -57q-21 0 -21 6q3 3 -8 10z" />
    <glyph glyph-name="semicolon" unicode=";" horiz-adv-x="432" 
d="M37 -31q0 7 18 25q37 37 25 72q-3 9 0 27t10 28q6 8 10 2t6 -2q0 3 11.5 8t17.5 2q9 -4 15 -14q8 -15 18 -15q8 0 8 -4q-2 -2 6 -28q10 -30 8 -41q-2 -8 -2 -23t-18 -33q-8 -8 -8 -10q0 -3 -13.5 -10.5t-19.5 -7.5t-12 -6q-5 -5 -8 -5q0 5 -15 5q-57 10 -57 30zM133 352
q-15 41 10 60q15 12 31 10q22 -3 33 -14q16 -16 24 -19t12.5 -7t5.5 -7.5t-1 -5.5l-1.5 -1.5t1 -4.5t2.5 -7q4 -12 4 -22q0 -17 -5.5 -27t-18.5 -14t-22.5 -5t-27.5 -1q-12 0 -25 18.5t-22 46.5z" />
    <glyph glyph-name="less" unicode="&#x3c;" horiz-adv-x="831" 
d="M88 567q-3 52 59 101q29 22 37 22t11 10q3 7 20 11q20 5 35 14q57 32 143 59q10 3 37 14.5t37 14.5l55 18q22 4 37 15q13 10 29 10q2 1 15 4.5t20 5.5q26 9 41 6q8 -1 13 -3.5t6.5 -6t-1.5 -6.5q-2 -2 -2 -16q3 -12 -7.5 -25.5t-41.5 -40.5q-64 -55 -246 -125
q-20 -8 -43 -18.5t-37 -18.5t-14 -10q0 -7 24 -14q42 -14 105 -45q14 -7 18 -11q0 -4 8 -4q5 2 35 -9.5t43 -20.5q15 -10 31 -13q20 -4 20 -8q3 -3 33 -14q31 -12 63.5 -34.5t35.5 -33.5q0 -3 2 -11t2 -11q6 -18 -2 -44.5t-19 -29.5q-2 0 -16 -14l-3 -3q-13 -14 -22 -10
q-12 4 -24 0q-13 0 -13 2q0 7 -18 11q-42 8 -47 18q0 5 -21 12q-24 7 -84 35q-94 46 -137 60q-15 5 -18 8q-4 4 -56 31q-55 29 -65 36q-15 11 -21 11q-6 -1 -24.5 11.5t-20.5 18.5q0 10 -6 13q-6 6 -6 28z" />
    <glyph glyph-name="equal" unicode="=" horiz-adv-x="765" 
d="M164 373q-3 0 -3 13t3 22q9 30 13.5 38t19.5 17q20 12 28 12q9 0 19 10t35 13q24 3 28 -4l6 -2q0 4 17 -5q21 -8 121 -14q103 -7 106 -10q24 -12 72 -12q8 0 17 -1.5t14.5 -3t5.5 -2.5q4 -4 -11 -18q-12 -12 -12 -27q0 -9 -10.5 -17.5t-18.5 -8.5t-16 -8q-9 -9 -39.5 -16
t-71.5 -7q-9 0 -81 -8q-24 -3 -73 -10.5t-73 -10.5q-40 -4 -52.5 -3t-23.5 9q-10 7 -15.5 22.5t-2.5 23.5q4 8 -2 8zM254 647q-6 0 14 27q4 6 11 16t25.5 21t33.5 16q5 2 94 -10q73 -10 110.5 -12t110.5 2q66 4 72 2q7 -3 7 -4.5t-11 -10.5q-19 -14 -19 -22q0 -9 -12 -25
q-9 -12 -35.5 -29t-33.5 -16q-6 1 -32.5 -7t-29.5 -11q0 -4 -4 0q-3 3 -14 -4q-18 -14 -76 -11q-19 0 -27 -4q-12 -4 -24 -4q-15 0 -27 -4q-7 -3 -48.5 -5.5t-49.5 -0.5q-1 1 -6 4t-9 6q-10 10 -10 25q-4 16 -8 18q-9 6 -2 23t0 20z" />
    <glyph glyph-name="greater" unicode="&#x3e;" horiz-adv-x="831" 
d="M141 754q-4 19 3 44.5t18 28.5q5 0 16 15q12 15 25 12q14 -3 24 0t15 -2q0 -6 16 -10q47 -11 47 -19q0 -6 21 -10q13 -3 23.5 -7t30 -14t32.5 -16q99 -48 137 -59q6 -2 18 -8q4 -4 56 -31q59 -31 65 -35q13 -10 21 -10q6 1 24.5 -12t20.5 -19q0 -9 6 -12q6 -6 6 -29
q3 -53 -59 -100q-31 -23 -37 -23q-4 0 -11 -10q-3 -7 -20 -10q-10 -2 -35 -15q-82 -39 -141 -61q-13 -3 -41 -14t-33 -13q-51 -17 -57 -18q-14 -2 -37 -14q-25 -13 -27 -13q-7 0 -37 -10q-23 -9 -38 -6q-25 6 -23 13q1 2 2 3q5 5 2 19q-3 10 7.5 22.5t43.5 40.5
q32 26 102 62.5t142 64.5q20 8 43 18.5t37 18.5t14 10q0 6 -24 13q-18 6 -54 24q-14 6 -51 21q-12 6 -18 12q0 6 -8 2q-5 0 -35.5 12.5t-42.5 20.5q-8 5 -31 10q-20 4 -20 8q-1 1 -33 17q-33 16 -64.5 36.5t-34.5 28.5q0 5 -6 23z" />
    <glyph glyph-name="question" unicode="?" horiz-adv-x="710" 
d="M221 170q-19 36 -25.5 73t2 78.5t17 71t35 76t39 67t46 69.5t40.5 59q4 6 9.5 21t8.5 17q18 11 95.5 132t107.5 176q15 28 21.5 51.5t4 40t-23 15.5t-57.5 -23q-47 -28 -78.5 -63.5t-67.5 -90.5q-26 -38 -37 -102q-8 -43 -41 -43q-22 0 -59 26q-31 34 -35 103
q-3 43 35.5 108t77.5 101q12 11 38 37.5t47.5 45.5t41.5 29q72 35 131 35q95 0 147 -78q22 -32 30 -70t6.5 -72t-16 -76.5t-28.5 -73.5t-41 -75t-44 -69t-46.5 -66t-40.5 -57t-27 -46t-26 -44q-112 -146 -152 -274q-9 -30 -10.5 -49.5t0 -42.5t0.5 -44q-3 -39 -43 -30
q-59 13 -82 57zM203 -211q-13 20 -15 51t9 37q12 6 14 8q7 7 31 11q23 5 28 -9q4 -8 15 -8q8 0 29 -20.5t18 -24.5q-4 -4 4 -20q18 -37 -12 -64q-12 -11 -29 -14.5t-29 2.5q-43 20 -63 51z" />
    <glyph glyph-name="at" unicode="@" horiz-adv-x="1366" 
d="M115 223q-5 3 -6 4.5t2 3.5q5 3 2 56q-5 64 16 145q42 141 135 248q39 46 120 124.5t103 78.5q3 0 23 16t27 23q6 6 6 4q0 -4 18 10q51 42 145.5 87.5t157.5 55.5q40 6 58 15q8 5 41.5 6.5t54.5 -2.5q139 -32 202 -83.5t107 -183.5q14 -44 14 -51q9 -23 13 -109.5
t-2 -121.5q-7 -45 -38.5 -108.5t-45.5 -65.5q-6 0 -15 -10t-14 -21q-10 -20 -31.5 -40.5t-42.5 -33.5q-58 -35 -63 -37q-48 -23 -53 -28q0 -8 -21 -8q-22 -4 -63.5 -3.5t-46.5 5.5q-3 3 -23 8q-48 12 -117 67q-1 1 -12 10t-20 17.5t-9 11.5q0 10 -6 13q-8 3 -26 -13
q-20 -16 -25 -16q-2 0 -14 -12q-13 -13 -23 -13q-17 0 -29 -6q-16 -8 -34 -8q-21 0 -51.5 13t-45.5 28q-12 12 -16 12q-12 0 -27 27t-18 53q0 19 -4 23q-3 6 2 6t2 6q-6 11 3.5 50.5t18.5 39.5q5 0 9 21t12 24q9 4 6 10q-3 5 32.5 40.5t65.5 56.5q8 6 19 14t17.5 12.5
t8.5 5.5l54 23q6 6 34 6q40 3 109 -41q37 -23 47 -10q4 6 8 5t4 -7q0 -8 4 -8q7 0 29 -24t31 -42q11 -19 4 -33q-5 -8 0 -8q11 0 -37 -57q-10 -13 -27 -33q-21 -24 -31.5 -54.5t-4.5 -41.5q4 -7 20 -18t21 -11q2 2 10 -2q24 -12 66.5 -6t70.5 24q82 51 82 64q0 8 10 8
q11 0 41 36t43 65q30 65 17 202q-4 44 -24 101.5t-36 79.5q-8 9 -42 20t-60 12q-52 3 -131 -12t-119 -35q-18 -9 -39 -16q-4 -1 -43 -23q-7 -4 -28.5 -17.5t-30.5 -17.5q-32 -18 -45 -28q-19 -15 -23 -15q-10 -8 -18 -16q-14 -14 -21 -14q-5 0 -47.5 -35t-52.5 -45
q-6 -9 -27 -30t-24 -21q-2 0 -25 -27q-20 -24 -35 -39q-9 -9 -29 -39q-3 -5 -7 -12l-6 -10.5t-3 -3.5q-5 -5 -26.5 -57.5t-24.5 -67.5q0 -3 -2.5 -16t-3.5 -19q-17 -116 22 -215q37 -92 78 -146q15 -20 41.5 -43.5t34.5 -23.5q7 0 20 -10q47 -35 152 -35q123 0 268 88
q9 5 29 12q7 0 10 6q2 5 17 14t22 9l16 12q3 2 7 6h2q-1 -3 -1 -2.5t5 4.5q8 8 12 8q3 -3 35 17q47 29 86 33q10 0 10 -13q-1 -3 -1 -6t1 -5.5t2 -2.5q2 -2 -2 -16q-15 -41 -33 -50q-14 -7 -14 -12q0 -3 -29.5 -31t-38.5 -32q-5 -3 -36 -29q-27 -23 -41 -31q-3 -2 -13 -7.5
t-20 -11.5t-17 -11q-31 -23 -49 -23q-13 -3 -20 -10q-6 -6 -10 -6q-7 0 -33 -15q-24 -14 -45 -14q-19 -4 -19 -6t-39 -2q-37 0 -49 -4q-86 0 -149 32q-26 13 -33 13q-14 0 -61.5 35.5t-88.5 76.5q-32 32 -67.5 98t-56.5 121q-6 16 -16.5 54t-10.5 49q0 10 -8 14zM553 418
q0 -23 8 -23q26 0 79.5 44t61.5 67q6 20 13 26q10 10 19 25.5t9 20.5q0 14 -34 6q-54 -13 -105 -63.5t-51 -102.5z" />
    <glyph glyph-name="A" unicode="A" horiz-adv-x="815" 
d="M-154 -162q-12 19 -12.5 43.5t10 57t21.5 57t22 43.5q7 12 16.5 33.5t12.5 27.5q9 17 -17.5 44.5t-31.5 43.5q-4 12 -4.5 21.5t2.5 16t7 11.5t11.5 9t13.5 6.5t16.5 6.5t16.5 7q69 33 98.5 61.5t61.5 94.5q12 24 43.5 82.5t46.5 91.5q20 45 46 97t46 88t53 95.5t50 90.5
q13 23 96 157q27 44 130.5 176.5t125.5 139.5q30 9 60.5 -20t43.5 -62q1 -5 3.5 -14.5t3.5 -14.5q25 -123 -60 -489q-13 -60 -55 -222q-2 -7 -11 -32t-10 -33q-1 -7 9.5 -12t21.5 -13t10 -22q0 -7 -2 -13.5t-6.5 -12t-7.5 -9t-10 -8.5t-10.5 -7t-12 -6.5t-10.5 -5.5
q-20 -9 -39 -70t-27 -106q-5 -43 -40 -156.5t-33 -162.5q3 -12 -6 -18.5t-29 -8.5q-57 -3 -86 33q-12 15 -12 37q4 20 4 41v8l2 8q1 4 2 11.5t2 11.5q4 15 29 92.5t46 145.5t17 75q-15 -2 -53 -19.5t-53 -21.5q-27 -7 -85.5 -35.5t-93.5 -48.5q-19 -11 -27.5 -21t-17 -27.5
t-16.5 -29.5q-36 -54 -76 -135q-13 -27 -69.5 -128.5t-67.5 -133.5q-5 -15 -49 10t-60 43zM336 528q-3 -6 -8 -15.5t-7 -13.5l-5 -10t-3 -8t-0.5 -5.5t2.5 -4t6 -1.5t9.5 0.5t13.5 2.5t18 4q17 4 52.5 17.5t50.5 17.5q21 6 45 10.5t30.5 5.5t16.5 10.5t14 23t13 44.5
q81 288 114 502q8 56 4 60q-6 5 -34 -31q-104 -135 -205 -346q-18 -35 -127 -263z" />
    <glyph glyph-name="B" unicode="B" horiz-adv-x="1062" 
d="M-66 -49q-28 41 23.5 224t126 398.5t84.5 278.5q3 20 22.5 97.5t30.5 113.5q11 34 65.5 89t103 95t48.5 41q5 27 22 65t34 38q20 0 47 -17l24 -14l27 4q27 6 80 4t71 -14q3 -2 43 -17q46 -15 54 -20q15 -9 37 -30t22 -27q0 -8 10 -31q25 -59 -22 -153.5t-133 -188.5
t-165.5 -167.5t-137.5 -115.5q-4 -6 -1 -8t13 -2q15 0 53 7t41 7q13 0 55 6q93 13 160 13q144 0 205 -43q11 -8 27 -65.5t10 -78.5q-18 -64 -85.5 -137.5t-157 -138t-194.5 -125t-196 -103.5t-162 -69q1 -2 -6 -3q-5 -1 -23 -3q-35 -4 -43 -8q-16 -8 -28 -5q-23 0 -39 -8
q-3 -2 -8 -1.5t-6 3.5t-6.5 3.5t-8.5 -1.5q-20 0 -53 37q-8 14 -29 21q-10 3 -21 16t-11 23q1 1 -3 10zM260 543q-18 30 -53 -52q-56 -131 -115 -400q-25 -115 -20 -120q2 0 39 11q99 29 263 117.5t313.5 199t186.5 184.5l-57 6q-51 3 -110 -2t-153.5 -18.5t-111.5 -15.5
q-11 -1 -30.5 -4t-26.5 -3.5t-20.5 0t-22 5.5t-21 13.5t-26.5 22.5q-17 17 -22.5 25t-7 16t-5.5 15zM387 827q-4 -9 -28 -57q-91 -178 -78 -179q3 0 10 7q28 28 203.5 239.5t175.5 217.5q2 0 10 12q4 8 12 16q0 5 23 39q10 15 24 32.5t22 26.5t12 19.5t-3 15t-26 8t-54 3.5
q-40 0 -90.5 -17t-62.5 -45q-30 -40 -58 -104q-32 -74 -33 -76q-6 -12 -24 -54.5t-21 -53.5q-5 -27 -14 -50z" />
    <glyph glyph-name="C" unicode="C" horiz-adv-x="1050" 
d="M842 1145v11v13t-1 13.5t-2.5 15t-4 14.5t-7 15.5t-11 13t-14.5 12.5t-19.5 10.5t-24.5 8.5q-30 -2 -82 -25q-49 -24 -114 -98t-128 -175.5t-123 -219.5t-100 -235.5t-58 -216.5t2 -169t81 -88q55 -16 124 -16q136 0 287 59t275 143q3 2 34 24t65.5 45t59.5 38
q19 9 -11 -37q-44 -71 -90 -120l-7 -7q-124 -124 -293.5 -202t-323.5 -78q-78 0 -142.5 22.5t-117 68.5t-84 125t-37.5 185q-8 145 81 372.5t233.5 433t281.5 281.5q11 6 37.5 15t28.5 10q42 27 123 27q15 0 23 -3.5t10 -3.5q68 -10 113.5 -68t56.5 -130q3 -21 -9 -123
q-6 -53 -13 -70.5t-21 -19.5l-58 -6q-14 8 -17.5 34t-2.5 101z" />
    <glyph glyph-name="D" unicode="D" horiz-adv-x="948" 
d="M-106 -27q-27 79 40 146q12 12 17.5 20t6.5 12.5t3.5 16t5.5 22.5q4 13 42 121t50 164q3 13 39 129q71 234 97 326q1 4 5.5 17.5t7.5 23.5t3 14q0 11 2 17t2 8q-1 5 -14.5 16t-29 24.5t-26.5 46.5t-8 79q1 16 8.5 30t24.5 28.5t27 22t34.5 22t28.5 17.5q151 95 338 95
q107 0 240 -35q58 -16 118.5 -84t83.5 -133q26 -73 28.5 -150.5t-18 -151t-56.5 -148t-88.5 -144t-112.5 -136t-129.5 -128t-138.5 -116.5t-141 -104t-135.5 -88t-123.5 -71q-56 -27 -88 -27q-7 0 -14 1t-14 3.5t-12 4t-12 6t-10.5 7t-11.5 9t-10.5 8.5t-11.5 10t-11 10
q-4 4 -11 9t-11 8.5t-8 9t-6 12.5zM178 401q-19 -45 -56 -160.5t-40 -144.5q66 23 172.5 93t223 168.5t224 214.5t177 230.5t82 216t-61.5 171.5q-37 34 -124.5 52t-158.5 18q-34 0 -99.5 -9.5t-82.5 -21.5q-7 -6 -63.5 -194t-71.5 -251q-8 -44 -37.5 -119t-38.5 -114
q-18 -83 -45 -150z" />
    <glyph glyph-name="E" unicode="E" horiz-adv-x="925" 
d="M-4 178q-21 161 80 451q6 16 22.5 52.5t20.5 51.5q6 24 16.5 50.5t19 44.5t23 48.5t21.5 45.5q15 32 43.5 88.5t40.5 81.5q9 20 14 33.5t6.5 18t8 14t24.5 32.5q4 6 19 28t30.5 44.5t32.5 45.5t31.5 36.5t21.5 11.5q8 -3 19 -2t22 -2q14 -4 22 -15t10.5 -18.5t15.5 -12.5
t38 3q105 36 109 37q16 3 58 15t64 15q75 10 113 10q82 0 112.5 -27t23.5 -54t-17 -27q-58 3 -261.5 -62t-258.5 -100q-73 -46 -102.5 -74.5t-71.5 -99.5l-7 -10q-71 -118 -94 -209q12 0 33 6q8 2 68.5 23t117.5 39.5t125.5 34.5t106.5 16q36 0 45 -15q24 -33 -19 -68.5
t-90 -51.5q-325 -117 -429 -181q-52 -32 -60 -55q-37 -108 -33 -285q3 -145 152 -145q74 0 177 35t201 87t157 87t95 59q11 7 11 -2q-42 -91 -132 -173t-189 -133.5t-192.5 -79.5t-150.5 -23q-87 9 -167.5 98.5t-96.5 181.5z" />
    <glyph glyph-name="F" unicode="F" horiz-adv-x="704" 
d="M-18 -47q-21 32 -23.5 84.5t10.5 114.5t29 118.5t34.5 118t24.5 92.5q-36 6 -50 14.5t-42 39.5l-26 30l4 15q4 16 4 20q-3 6 12.5 19t30.5 18q12 4 37 4q14 -3 49.5 5.5t44.5 17.5q8 8 8 16q0 6 8 29.5t15 38.5q4 8 4 10q5 35 12 49q9 18 16.5 39t16 51t12.5 41
q5 15 12.5 39t12.5 39q7 22 10 41q2 7 7 20.5t7.5 20.5t4.5 20t-3 19q-16 -6 -47 -26.5t-45 -23.5q-34 -7 -72.5 18t-50.5 60q-10 27 2 43t34.5 24t23.5 9q5 5 56.5 27t72.5 30q9 3 22.5 11t20.5 10q26 8 37.5 17.5t11 17.5t5.5 16.5t23 13.5q10 3 27.5 -6.5t50.5 -1.5
q343 78 475 76q93 -1 108 -45q6 -20 -7 -29q-4 -3 -8 -2q-38 6 -247.5 -45.5t-283.5 -99.5q-16 -10 -27 -35.5t-21 -68t-11 -46.5q-4 -13 -15 -41t-17.5 -50t-8.5 -42q-1 -18 -54 -160q-14 -35 -14 -36q-2 -13 10 -12q3 0 7 1q37 9 113.5 37t117.5 37q130 31 199 39
q22 3 30.5 -10t5.5 -30t-12 -28q-10 -13 -73 -42t-137 -60.5t-91 -40.5q-29 -15 -84 -35t-74 -28q-29 -13 -41.5 -18.5t-32.5 -22t-26 -35.5q-5 -16 -16 -50.5t-17 -52.5q-30 -77 -82 -260t-32 -198q19 -14 1 -24q-22 -13 -55 3q-21 11 -34 31z" />
    <glyph glyph-name="G" unicode="G" horiz-adv-x="1081" 
d="M-14 145q-8 43 -7.5 87t3.5 74t19 80.5t22.5 68.5t32 79t30.5 74q25 60 71 145t115.5 187.5t144 188.5t162 144t162.5 58q64 0 119.5 -43.5t87.5 -105.5q37 -70 -22 -181q-25 -47 -72.5 -98.5t-91.5 -79.5q-49 -20 -55 -4q-5 15 0 42t17 57t27 64.5t29 64.5t23.5 56.5
t9.5 41t-12 18.5q-65 11 -162.5 -64.5t-191.5 -202t-174 -268.5t-122 -279.5t-24 -219.5q-7 -41 20 -71.5t70 -43.5q86 -16 221 35t251.5 129t195 164.5t63.5 134.5q-19 62 -147 62q-75 0 -180.5 -20.5t-173.5 -40.5l-68 -21q-11 -17 -21 -17q-15 0 -20.5 30.5t5 68
t36.5 51.5q66 34 167 59t195 25q81 0 140 -23q69 -27 104.5 -102.5t30.5 -161.5t-47 -149q-96 -146 -267 -252.5t-342 -106.5q-180 0 -309 129q-51 59 -65 137z" />
    <glyph glyph-name="H" unicode="H" horiz-adv-x="872" 
d="M14 -10q3 -13 -12 -13q-29 0 -69 33.5t-37 71.5q3 43 41.5 158t73.5 214t32 111q-1 3 -13.5 18t-19.5 40v20l23 12q26 13 35 13q14 0 14 6q0 10 2 12v6q9 16 12 31q4 23 11.5 48t19 55.5t16.5 47.5q68 220 86 357q2 11 3 23t1.5 17.5t3.5 11.5t9.5 9.5t19.5 7.5
q20 8 37.5 8t28.5 -18q7 -12 19.5 -26.5t15.5 -18.5q32 -43 -64 -358q-3 -8 -33.5 -99.5t-40.5 -134.5q0 -4 15 -5t40.5 1t51.5 8q38 8 84 13q32 3 70.5 12.5t48.5 15.5q10 7 16 4t12 3q2 1 7 2t6 2q26 0 94 22l6 2q16 0 22 6q34 89 68 207q8 22 20.5 74t20.5 74
q50 125 68 202q3 11 6 40t9.5 45.5t23.5 27.5q20 6 28 2q9 -6 21 -6q24 0 69 -64q7 -11 7.5 -25t-2.5 -25.5t-8 -28t-7 -25.5q-5 -26 -33 -127q-36 -124 -100 -307q-236 -679 -260 -1059q-4 -2 -28 -6.5t-54.5 26t-34.5 89.5q-14 186 125 679q1 5 4.5 14t5 15t2 12t-3.5 9
t-12 2q-16 -4 -33 -11t-31.5 -10.5t-37.5 -5.5q-35 -3 -50 -14q-11 -8 -22 -8q-22 7 -66 -7l-6 -2q-8 -3 -16.5 -4t-19.5 -1t-17 -1l-148 -2q-8 -7 -53.5 -118.5t-86.5 -240.5t-36 -169z" />
    <glyph glyph-name="I" unicode="I" horiz-adv-x="399" 
d="M-119 -88q-12 22 -17 37t-5.5 31t12 27.5t37.5 17.5q8 2 17 2q6 1 7 10v4q4 22 13 72.5t17 86.5t20 72q74 219 88 260q72 202 80 230q39 129 75 221q5 12 5 14t-5 9q21 25 27 41q5 12 6 19t-2 8.5t-6.5 1t-11 -3t-11.5 -3.5q-42 -9 -81 42q-34 44 -26 74q3 12 15 15
q14 4 31.5 7t30.5 7.5t32 14.5q194 102 336 125q38 6 49 -9.5t-12 -50.5q-16 -24 -106 -80q-8 -4 -21.5 -10t-19 -9.5t-9 -12.5t-0.5 -23q5 -25 -2.5 -54.5t-16 -47t-26.5 -49.5q-12 -21 -19 -41.5t-13.5 -46t-12.5 -43.5q-15 -35 -30 -76t-33 -90.5t-29 -77.5
q-22 -52 -56.5 -147t-49.5 -134q-17 -43 -56 -169.5t-36 -143.5q3 -6 81 14q18 4 50 10.5t49 10.5q3 0 36.5 11.5t65.5 22.5t33 9q-24 -24 -118.5 -91t-200.5 -123t-130 -32q-5 5 -10 5.5t-8 4.5q-4 5 -14 11t-19 20z" />
    <glyph glyph-name="J" unicode="J" horiz-adv-x="899" 
d="M-217 -252q-1 58 -1.5 103t10 93.5t34.5 98.5q31 66 71.5 121t81 94t98.5 78t106 64.5t122 62.5q8 4 34.5 14t35.5 17q10 7 26 13t27 9l10 2q-6 4 7 8t22 4q14 -2 37.5 5t32.5 16q5 5 27 8t32 6q21 7 53 15q25 6 29.5 7.5t3.5 4.5t4 10q8 9 10.5 27.5t5.5 25.5
q38 102 52 232q3 42 5 77t-17.5 62.5t-65.5 36.5q-112 18 -253 -64.5t-214 -185.5q-3 -5 -7 -11.5t-8.5 -12t-5.5 -7.5q-4 -6 -10 -18q-3 -6 -20 -11t-23 -1q-3 3 -20 0q-11 -2 -13.5 -1t-1.5 5q0 6 -8 14q-15 15 -18 21q-8 16 -13 16q-7 0 -11 24t1 33q9 18 10 23
q4 16 9 16q8 1 17.5 10.5t12.5 18.5q32 52 114.5 113t152.5 96q48 24 118.5 39.5t135.5 15.5q134 0 198 -81.5t66 -223.5q1 -12 -2.5 -88t0.5 -76q1 -2 -5 -11.5t-11.5 -25t-2.5 -31.5q1 -15 0.5 -17t-3.5 -5t-5 -10q-2 -8 23 -6t49.5 6t32.5 -2q7 -8 10 -10q3 -1 6 -3
q-4 -5 -11.5 -12t-11.5 -12q-8 -16 -30.5 -25t-24.5 -12q-2 -4 -16.5 -8.5t-34.5 -10t-27 -8.5q-8 -3 -33 -90q-3 -13 -8 -18q-6 -6 -6 -13q0 -12 -8 -16q-6 -3 -6 -12q3 -6 -4 -13q-6 -6 -2 -10q-1 -8 -17 -51q-18 -47 -39 -90q-5 -11 -12.5 -22t-13.5 -33
q-7 -28 -65.5 -129t-86.5 -140q-30 -43 -55 -75.5t-65 -81.5t-78 -84.5t-82 -69.5t-90.5 -52t-90.5 -18q-71 0 -145 49.5t-107 114.5q-2 4 -13 38.5t-11 39.5zM-104 -102q-10 -45 -11 -84.5t8 -79t40 -65.5t81 -31q72 -7 175 74t153 157q133 205 181 296q62 120 87 218l9 25
q9 24 12 37t-2 20q-3 0 -48.5 -19.5t-94 -41t-54.5 -23.5q-229 -88 -317 -176q-5 -5 -13 -15l-14 -17.5t-8 -8.5q-8 -4 -29 -25q-126 -126 -155 -241z" />
    <glyph glyph-name="K" unicode="K" horiz-adv-x="1095" 
d="M-37 -164q-9 15 -13.5 50.5t-0.5 58.5q0 7 1 23t1 20q4 20 4 28q4 8 4 19q0 9 8 37q10 35 10 37t5 22q2 11 8.5 31.5t11 36.5t4.5 20q0 9 -12 37q-12 27 -10 27q0 2 -4 14q-5 12 -2 33t12 30q4 4 24 29q13 17 19 17q8 0 51 43q16 16 16 20q0 3 13 29q18 43 22 59
q4 20 19 49q10 20 16 41q9 26 23 51q9 17 20.5 48t13.5 36q44 105 162 392q5 13 22 66.5t19 57.5q6 13 8.5 22t7.5 19q16 32 35.5 95.5t32.5 89.5q19 43 59 43q37 0 64 -39.5t29 -77.5q0 -21 -78 -221q-6 -15 -18.5 -50t-20.5 -53q-9 -17 -26.5 -67.5t-28.5 -67.5
q-3 -5 -4 -7.5l-2 -5l-3 -7.5q-9 -21 -18 -39q-15 -31 -40 -91.5t-40 -92.5l-5 -11q-48 -92 -33 -90q2 1 7 4q22 15 51 28.5t46 25.5q38 25 112.5 69.5t98.5 54.5q125 50 165 64l33 11q33 12 56.5 18.5t39.5 7.5q57 3 89 -69q22 -51 14 -83q-4 -14 -14 -8
q-18 9 -170.5 -48.5t-186.5 -78.5q-15 -9 -41 -21t-37 -18q-34 -20 -98 -60t-98 -59q-15 -8 -55.5 -38t-47.5 -33q-3 0 -14 -15q-10 -16 -16 -16q-7 0 -36.5 -27.5t-35.5 -38.5q-2 -3 -12 -28q-8 -19 -4 -23q40 -21 147 -26q35 -2 106 -8.5t109 -8.5q80 -6 223.5 -27
t214.5 -28q1 0 16.5 -1t24 -2.5t21 -4.5t19 -9t5.5 -14q-2 -24 -18 -43t-39 -22q-9 -1 -25 -5t-29 -6t-26 0q-22 1 -59.5 0t-57.5 0q-51 2 -160.5 5t-173.5 6t-155 13.5t-166 29.5q-36 9 -43 4q-3 -2 -48.5 -157.5t-45.5 -164.5q-11 -16 -34.5 -0.5t-37.5 39.5z" />
    <glyph glyph-name="L" unicode="L" horiz-adv-x="714" 
d="M-25 70q-12 49 0 130.5t33 147.5q33 105 103 307.5t120 365.5t80 314q1 7 3.5 23.5t4.5 25.5t8 21t15 20q17 14 68.5 -34.5t48.5 -69.5q-9 -58 -25 -113q-62 -246 -131 -452q-12 -37 -68 -190.5t-88 -263t-38 -189.5q-3 -40 21 -58t69 -18q107 0 292 79.5t242 129.5
q14 12 18 -5q3 -15 -6 -36q-28 -61 -103 -122t-164.5 -103.5t-184 -65t-160.5 -12.5q-51 7 -98 60t-60 108z" />
    <glyph glyph-name="M" unicode="M" horiz-adv-x="1171" 
d="M25 -137q-17 -10 -53 7t-61.5 50t-14.5 62q5 13 9.5 36.5t6.5 30.5q47 171 122.5 366.5t186 452t154.5 365.5q6 15 6 31q0 9 6 12q6 0 6 10q0 9 6 12q3 0 4.5 3t-0.5 4q-2 2 10 10q4 3 5 4q23 17 26 8q0 -3 21 -10q15 -4 31 -19t24 -18q17 -7 22.5 -9.5t13.5 -10.5
t17 -15q20 -16 21 -69t-4 -76q0 -116 -21 -223q-3 -15 -5 -58.5t-1 -58.5q3 -29 3.5 -99t4.5 -100q6 -39 25 -39q38 0 158 187q21 33 71 107.5t74 115.5q11 19 37 58.5t45.5 72.5t30.5 59q8 20 25.5 56.5t27.5 60.5q2 4 4.5 18t5 26t4.5 13q5 3 9 12t12 9q13 1 18.5 9.5
t7.5 8.5q4 0 21 21q23 29 35 14q2 -2 10 -2q29 -5 62.5 -37.5t33.5 -60.5q0 -73 -45 -201q-79 -217 -220.5 -729t-66.5 -502q9 1 8 -8q-1 -14 -18 -23q-35 -18 -86.5 11.5t-62.5 68.5q-19 63 6.5 227.5t57 291t61.5 227.5q8 27 11 44t2 24.5t-5 7.5q-6 0 -21 -20.5
t-30 -49.5q-2 -4 -19 -31t-20 -30q-48 -48 -80 -107q-52 -91 -150 -82q-82 7 -127.5 79.5t-58.5 166.5q-1 12 0.5 83.5t1 130.5t-5.5 60q-4 -4 -27 -59.5t-51 -124t-31 -74.5l-4 -10q-11 -28 -34 -85t-35 -85q-9 -22 -52.5 -127t-73.5 -181.5t-57 -163t-26 -122.5q2 -4 1 -7
t-3 -5z" />
    <glyph glyph-name="N" unicode="N" horiz-adv-x="1021" 
d="M-109 -170q-20 28 -20 67t20 121q2 9 5.5 24t6 24.5t3.5 13.5l20 80q17 58 25 100q20 68 24 76q2 4 2 14q0 12 3 15q5 3 24.5 67.5t18.5 71.5q0 4 4 8q3 0 11 17t9 28q1 12 12 49t15 47q4 9 12 39q5 23 16 45q10 20 29 105q0 12 8 32t8 27q13 37 13 47q0 7 4 19
q6 17 11.5 45.5t4.5 34.5q0 2 2.5 9.5l3.5 10.5q4 12 4 20q0 9 7 27q9 22 6 33q0 12 18 20q20 7 29 4.5t41 -22.5q65 -40 69 -70q0 -12 11 -16q3 -1 4.5 -3.5t2 -6t1.5 -4.5q0 -5 8 -13t8 -14q0 -10 13 -27q7 -10 12 -28q19 -69 26 -76t7 -23q7 -34 8 -37q9 -22 20 -86
q4 -20 6 -24q6 -12 9 -31t13.5 -50.5t16.5 -37.5q13 -13 19 -59q5 -35 6 -39q8 -33 10 -49q6 -46 43 -142q0 -2 28 -61t32 -62q3 -2 10 18q7 18 24 81q31 118 43 133q4 6 66.5 212t71.5 245q6 22 18.5 63.5t20.5 69.5t17.5 71.5t10 70t-3.5 63.5q-6 22 -1 30t24 4
q15 -1 35 -16.5t20 -24.5q0 -6 18 -24q16 -16 21.5 -29.5t7.5 -36.5q0 -2 1 -6t1 -6q2 -20 2 -38t-2 -36.5t-4 -32t-6.5 -33t-7.5 -31t-9.5 -34.5t-9.5 -35q-9 -36 -30 -94.5t-27 -79.5q-7 -24 -14.5 -71.5t-14.5 -69.5q-5 -17 -8 -45.5t-8 -46.5q-6 -24 -18.5 -75
t-23.5 -92t-22 -75q-2 -7 -17.5 -50.5t-25.5 -77.5t-8 -46q4 -4 -6 -25q-8 -20 -2 -36q2 -11 0 -14.5t-12 -6.5q-24 -6 -39 -6q-25 2 -47 18q-211 153 -299 525q-6 24 -18.5 73t-18.5 74q-25 99 -37 125q-4 3 -10 23l-7 14l-12 -16q-14 -17 -14 -43q-4 -49 -25 -101
q-9 -23 -18 -57q-12 -39 -14 -41q-5 -10 -7 -16q-5 -13 -10 -19q-10 -10 -6 -18q0 -11 -4 -15t-4 -18q0 -15 -4 -23q-2 -3 -27 -98q-23 -89 -33 -92q-2 -2 -2 -12q0 -13 -2 -17q-19 -37 -24 -69q0 -4 -2.5 -8.5t-4.5 -4.5q-4 0 -4 -8q1 -6 -3 -24t-7 -21q-2 0 -2 -14
q0 -11 -2 -11q-4 1 -8 -7.5t-7 -22t-3 -25.5q0 -20 -4 -24q-5 0 -5 -11q3 -12 -14 -55q-13 -36 -10 -70q0 -14 -4 -26q-6 -18 -4 -27q6 -31 -21 -31q-39 0 -65.5 16t-51.5 50z" />
    <glyph glyph-name="O" unicode="O" horiz-adv-x="909" 
d="M-25 88q-7 92 -3 142t22 139q7 34 26 100.5t25 103.5q2 13 8 26t8 19q2 11 10 34t9 28q2 18 9.5 35.5t10.5 27.5q15 52 58.5 142t56.5 123q2 5 7 15q10 20 5 20q-3 0 -12 -7q-11 -9 -39.5 -22t-46.5 -13q-13 0 -16 9q-12 31 55 109.5t113 115.5q24 19 55 32.5t54.5 30
t47.5 52.5q7 10 15 10q4 0 4 6t2 6q0 1 20 4q21 4 25 8q6 6 23 6t30 -6q33 -12 57 -36t11 -58q-2 -7 12 -14q20 -4 75 -40.5t60 -47.5q108 -108 146 -273q28 -127 -7 -217q-5 -13 -10.5 -33t-11.5 -36t-15 -31q-15 -23 -30.5 -60.5t-22.5 -50.5q-8 -14 -40 -81t-52 -93
q-9 -11 -19 -29t-16 -26q-36 -48 -59 -96q-21 -44 -64 -96l-15.5 -15.5t-14.5 -17.5q-6 -7 -32.5 -43.5t-48.5 -59t-42 -30.5q-5 -2 -8.5 -6.5t-10.5 -8.5q-4 -2 -16 -9t-15.5 -9t-13 -7t-14 -6.5t-13.5 -5t-16 -5.5t-16.5 -4t-20.5 -3q-37 -6 -59 -2q-77 20 -80 21
q-62 22 -108 93t-52 140zM104 164q-3 -24 -1 -59t6.5 -67.5t24.5 -57.5t52 -29q33 -4 70 18q61 39 125.5 109t122 154.5t101 159.5t83.5 153q28 55 41.5 81.5t33 76t25.5 84.5t6 81.5t-12 92.5q-11 30 -18 40q-6 9 -6 15q0 3 -41 67q-31 44 -78 75.5t-96 35.5q-24 2 -35 -6
q-10 -8 -19 -21q-7 -14 -18 -22q-18 -14 -29 -40t-22 -40q-55 -86 -135 -268q-4 -10 -19 -41t-26 -57.5t-15 -41.5q-2 -10 -6.5 -17t-5.5 -11q0 -14 -14 -56t-21 -57q-7 -14 -9 -30t-5 -25q-4 -10 -7.5 -26.5t-6.5 -22.5q-16 -34 -31 -162q-2 -13 -8 -41.5t-7 -44.5z" />
    <glyph glyph-name="P" unicode="P" horiz-adv-x="960" 
d="M-8 -283q-5 -2 -28.5 -5t-51 28.5t-27.5 89.5q0 147 133 524l-4 4q-6 8 -7 18t5 13q1 0 1.5 1t-0.5 3.5t-3 5.5q-4 7 -4 10t4 15l6 16l37 -4l13 31q5 8 13 30t9 25q2 5 6 16.5t6 16.5q23 58 50.5 123t63 146.5t52.5 121.5q5 13 21 56.5t26 64.5q13 26 33.5 74.5
t24.5 58.5q3 7 7 15.5t7 14.5t6 12.5t4 10.5t1.5 8t-1 5.5t-4.5 1.5q-7 0 -43 -19q-66 -37 -101 -74t-46 -98q-7 -40 -6.5 -48t12.5 -44q9 -27 -1.5 -48t-39.5 -7q-47 23 -62.5 49t-25.5 84q-4 34 3.5 82t22.5 80q13 26 13 28q0 5 4 9q2 0 12 9.5t24 25t23 28.5q9 12 17 12
q4 0 10 6q27 27 103 61t120 42q46 8 49 10q10 6 74 6q34 4 57 0q7 -1 24 -3t23 -3q58 -10 125.5 -31.5t89.5 -46.5q16 -16 46 -37q33 -22 67 -69q152 -206 72 -398q-7 -16 -13 -29t-10.5 -22t-12 -20t-10.5 -16t-14 -17t-14 -15t-18.5 -19t-20.5 -21q-222 -231 -579 -385
q-38 -17 -77 -21t-55 -8q-13 -3 -41 -7t-40 -7q-124 -342 -160 -570zM219 446q-1 -11 2 -12q117 24 290 128.5t280 201.5q298 273 92 471q-17 12 -59 34.5t-50 24.5q-12 0 -16 4q-11 5 -51 15q-74 18 -148 6q-28 -4 -27 -11q0 -3 5 -8q9 -9 12 -22q6 -16 4 -34t-5 -26
t-10.5 -25.5t-11.5 -31.5q-5 -19 -19.5 -43t-17.5 -35q-6 -19 -19 -47.5t-29.5 -63t-22.5 -48.5q-1 -2 -15 -31t-16 -37q-5 -21 -12.5 -39.5t-20.5 -45.5t-18 -38q-86 -184 -94 -219q0 -8 -4 -8q-3 0 -11 -28t-8 -32z" />
    <glyph glyph-name="Q" unicode="Q" horiz-adv-x="1093" 
d="M33 -37q-39 65 -58 132.5t-16.5 141t12.5 134.5t31 147q6 23 23 64t22 55q53 148 131 258q5 7 11 23.5t10 21.5q1 1 6 4t11.5 11t12.5 24q9 23 74 111q11 15 32.5 37.5t31.5 37.5q17 26 18 27q7 7 10 0q3 2 5 9t1 11q-3 8 -44.5 -6t-88 -29.5t-55.5 -11.5q-2 7 -27 -6
q-10 -6 -11 -4q0 2 3 8q4 8 0.5 14t-6.5 7.5t2 5.5q9 5 23 22q35 43 206 117q10 4 43.5 15.5t59.5 20.5t24 9q-14 4 8 9q7 1 22 4q10 2 11 2q11 4 23.5 5.5t20.5 1.5t24 -0.5t23 -0.5q100 -2 134 -11.5t105 -60.5q102 -71 164.5 -208.5t56.5 -270.5q-2 -38 -17 -116.5
t-28 -106.5q-65 -133 -96 -175q-19 -27 -43 -69q-15 -24 -50.5 -69.5t-49.5 -71.5q-5 -10 -13 -13t-10 -8q-3 -9 -10 -17t-12 -16q-4 -11 6 -43q6 -18 24.5 -59t26.5 -49q7 -23 39 -68q6 -8 19 -27.5t19.5 -27.5t19 -23t22 -21.5t23.5 -14.5t30 -10t35 -1q10 1 19 1.5
t12.5 1.5t7 1t4 -0.5t2.5 -2t2.5 -3.5t3 -6.5t6.5 -9.5q11 -13 10.5 -31t-14.5 -29q-35 -28 -82 -28q-53 0 -121 37q-11 6 -32.5 21.5t-30.5 19.5q-13 6 -13.5 9.5t-3.5 4.5q-12 3 -57.5 61.5t-52.5 75.5q0 3 -21 43l-22 39l-15 -10q-3 -2 -24 -21t-35 -30
q-5 -4 -15.5 -13.5t-15.5 -13.5q-55 -38 -67 -49q-125 -94 -240 -94q-68 0 -117 32q-18 10 -59.5 54.5t-52.5 64.5zM111 358q-12 -55 -17 -113t3.5 -125.5t35.5 -105.5q27 -39 86 -39q47 0 119 35q100 49 244 193l22 22l-6 17q-1 2 -6.5 15t-9.5 19t-29 64t-25 61
q0 7 -12 27q-14 24 2 57q5 9 2 17q-3 11 17 18.5t45 7.5q39 0 49 -16q3 -6 12 -6q4 0 14 -10q1 -1 8.5 -10.5t12.5 -14.5q10 -20 22 -47q1 -3 5.5 -17.5t8.5 -25.5t7 -12q6 -3 47 50t59 81q48 70 80 135q23 48 34.5 73t27.5 70t21 77t4.5 73.5t-11.5 79.5q-31 110 -78 168
q-20 25 -64.5 55t-68.5 31q-9 0 -19 -34.5t-14 -37.5q-7 -5 -6.5 -21t-5.5 -33t-27 -28q-4 -2 -14.5 -5t-13.5 -5q-10 -6 -19 0l-10 6q-15 15 -17 29t-5 18q-4 6 -26.5 -11t-33.5 -28q-7 -7 -15.5 -12t-13 -10t-8.5 -15q-7 -18 -18.5 -23.5t-16.5 -13.5q-6 -10 -43 -47
q-9 -9 -14.5 -18.5t-8 -16.5t-3.5 -8q-12 -12 -20 -25t-9 -14q-48 -48 -84 -118q-7 -14 -27.5 -42.5t-23.5 -37.5q-13 -38 -47.5 -98.5t-48.5 -98.5q-31 -88 -49 -156z" />
    <glyph glyph-name="R" unicode="R" horiz-adv-x="1060" 
d="M23 -242q-37 -1 -57.5 50.5t-18.5 93.5q6 108 41 215q6 20 6.5 32.5t-2.5 17.5l-9 15t-10 21q-2 6 -7 4q-3 -1 -5 5q-3 8 -6 28l-4 28l16 13q16 12 21 12q6 0 10 8q3 8 18 8q22 0 30 13.5t34 93.5q14 41 16 45q14 27 31 80l14 43q4 6 19 41q1 5 16 43t24.5 69.5t2.5 32.5
q-8 0 -17 5.5t-14.5 10.5t-15 15t-11.5 12q-7 7 -16 14.5t-11.5 10.5t-5.5 10.5t-6 21.5q-16 74 -10 111l2 12q8 48 28.5 89t42.5 68.5t63.5 59t68.5 48t80 47.5q109 61 240 61q186 0 299.5 -120t113.5 -310q0 -35 -3.5 -64t-8 -48t-18 -44.5t-21 -37t-30 -43.5t-33.5 -48
q-16 -23 -23 -30t-16 -12.5t-21 -16.5q-41 -37 -100 -86q-77 -65 -254 -175t-240 -124q13 -13 76.5 -19t106.5 -6q219 -8 536 15q40 3 84 10q14 2 4 -27q-33 -97 -282 -139h-9q-82 -12 -235 -12q-283 0 -383 45q-35 14 -41 14q-7 0 -10.5 -6.5t-12.5 -30.5q-4 -13 -13.5 -40
t-14.5 -42.5t-13 -43t-10 -43.5t-5 -43.5t1 -41.5q2 -13 -4.5 -26t-17.5 -13zM236 385q115 53 249 141q8 5 15 9t14 7.5t12 6.5l6 6q40 26 70.5 47t76 56t78.5 66t68.5 72.5t56 79.5t30 83t1.5 88q-10 48 -48.5 84.5t-88 52t-105.5 22t-100 -5.5q-6 -1 -23 -3.5t-23 -4.5
t-16.5 -7t-15.5 -14.5t-8 -23.5q-17 -78 -34 -129q-3 -10 -6.5 -25t-4.5 -20q-18 -61 -53 -154q-3 -8 -35 -112q-7 -18 -40 -109.5t-56 -140.5l-14 -31q-3 -29 -6 -41zM291 1026q-34 -31 -58 -91.5t-18 -105.5l4 -6q9 -14 30 56q1 1 1 2q11 34 20 69q1 5 7 22.5t10.5 32.5
t3.5 21z" />
    <glyph glyph-name="S" unicode="S" horiz-adv-x="1005" 
d="M-106 -94q-61 65 -37 127q4 11 21.5 34t25.5 23q6 -1 9.5 0t6 -3.5t3 -6t1.5 -8t2 -9.5q10 -63 125 -63q98 0 304 48.5t280 88.5q4 3 16 9t24.5 12t28 14.5t26 16.5t19 18t8 18.5t-8.5 18.5q-4 4 -81 43t-96 47q-80 31 -223 102q-94 45 -102 51l-8 9q-34 34 -53.5 55
t-43.5 54.5t-39 66.5q-12 27 -19 60.5t-9 62t-1.5 53.5t1.5 40v15q-3 19 36 73t64 79q100 100 191 170t204 129q31 16 77.5 22.5t60.5 12.5q14 8 46.5 6t45.5 -15q27 -27 37.5 -46.5t17.5 -50t16 -52.5q39 -105 26 -206t-73 -194q-9 -14 -23 -26t-20 -25q0 -1 -7.5 -8
t-17 -16t-12.5 -13q-4 -5 -8.5 -15t-8 -15t-7.5 -4q-2 0 -13 -8.5t-23.5 -18.5t-16.5 -12q-11 -7 -19 -9.5t-10.5 -2.5t-6 -2.5t-7.5 -8.5q-7 -8 -30 -6.5t-30 6.5q-5 3 -12 5.5t-9.5 4t-2.5 6t6.5 13t19.5 24.5q82 100 129 171t86 169q6 25 8 56t-4.5 64.5t-23.5 47.5
q-16 13 -39 13q-48 0 -130.5 -47.5t-161 -111.5t-142.5 -126t-86 -94q-19 -28 -24 -55.5t4.5 -52t25 -46t43.5 -42.5t53 -37.5t60.5 -34t59.5 -28t56.5 -24.5t44.5 -20q18 -9 65.5 -28.5t63.5 -29.5q15 -9 53.5 -29.5t61.5 -34t48.5 -38t37.5 -51.5q34 -75 29 -122t-58 -110
q1 0 -20 -14l10 2q-5 -3 -22 -8q-24 -7 -56 -25t-49 -24q-214 -84 -366 -107q-15 -2 -49 -12t-54 -10q-1 0 -20 -1t-33 -1.5t-21 0.5q-10 0 -16 -2q-13 0 -27 2t-22 2q-36 -1 -66.5 -1.5t-62.5 10.5t-57 36zM258 -121q-4 1 -3 -2q0 -4 3 -5q1 -1 2 1q0 6 -2 6zM213 -127
q-4 3 -5 -4q2 -2 3 -2q2 0 2.5 2.5t-0.5 3.5z" />
    <glyph glyph-name="T" unicode="T" horiz-adv-x="516" 
d="M-45 1159q3 12 14 19.5t23 7.5q21 0 67.5 7.5t83.5 15t98 21t70 15.5q12 3 32.5 6.5t29 5.5t21.5 7t18.5 11t12 16.5t9.5 25.5q1 4 3.5 20.5t6 28t7.5 16.5q21 24 90 11q35 -7 51.5 -21t9.5 -45q-8 -35 -4 -39q10 -10 33 -10q7 0 71.5 3.5t158.5 7t173 3.5q191 0 262 -20
q28 -7 35 -33.5t-7.5 -50t-39.5 -23.5q-48 1 -321 -28.5t-314 -32.5q-64 -5 -74 -9q-22 -9 -37 -54q-3 -9 -6 -21q-30 -113 -100 -262q-89 -183 -165.5 -397t-116.5 -402q-4 -13 -2 -22.5t2 -10.5q1 -12 -5.5 -15.5t-13.5 -2t-18 5.5q-24 8 -38.5 33t-17.5 55q-8 84 -6 123
q4 75 31.5 183.5t78 243t81 209.5t80.5 193q39 90 28 99q-21 19 -237 -47q-14 -4 -26 -4.5t-20 1.5t-18 10t-16 13.5t-18 18.5t-19 20q-41 41 -41 94z" />
    <glyph glyph-name="U" unicode="U" horiz-adv-x="1300" 
d="M78 156q-11 64 3.5 150.5t48 177t66.5 163.5t70 144q4 7 25.5 48.5t31 59t31 54.5t36.5 58.5t35.5 47t39.5 41.5q8 0 24 12q35 26 46 21q7 -5 18 -5q12 3 45 -23.5t39 -43.5q3 -9 2.5 -36t-4.5 -30l-2 -2q-5 -9 -2 -12.5t-3 -9.5t-28 -17q-19 -9 -50 -41t-40 -51
q-13 -26 -55 -96q-55 -88 -131 -260q-14 -30 -58 -152q-21 -56 -37 -138.5t0 -111.5q5 -10 21 -10q28 0 81 34.5t105 79.5t116 106.5t98 96.5t65 68q21 22 69.5 73t77.5 82t68 75.5t67 81.5q4 5 37 43q125 144 170 274q1 2 2.5 10t3.5 14t4 7q25 11 25 121q0 9 11.5 14.5
t27.5 5.5q8 -2 29 -2q31 -10 67 -51t37 -76q0 -130 -68 -281q-20 -43 -50 -120.5t-42 -106.5q-31 -74 -45 -115q-2 -7 -10.5 -37t-13.5 -38q-11 -19 -19 -42.5t-15.5 -53.5t-12.5 -46q-3 -8 -18 -70.5t-17 -66.5q-14 -29 -34.5 -100t-23.5 -99q-4 -33 -14 -48.5t-10 -16.5
q-1 -4 -7 -4.5t-15 1t-11 1.5q-13 3 -20 7t-8 7t-2.5 5.5t-4.5 2.5q-43 4 -32 158q5 56 10 82q3 15 49 217q11 50 14 68q3 17 15 55.5t14 62.5q-24 -22 -60 -61.5t-53 -56.5q-5 -5 -9.5 -9t-5.5 -5l-2.5 -2.5t-1.5 -2t-3 -5t-6 -9.5q-101 -130 -301 -311q-1 -1 -26.5 -24
t-33 -29.5t-31.5 -27t-38 -29t-34.5 -21.5t-38 -19t-34.5 -8h-12l-13 -2q-91 -6 -158 53.5t-81 151.5z" />
    <glyph glyph-name="V" unicode="V" horiz-adv-x="960" 
d="M168 45q0 17 -1 57.5t-0.5 68.5t5.5 60q0 4 1 15t2.5 26.5t2.5 26.5q3 45 60 356q51 280 51 312q-5 9 10 84q10 54 10 84q-3 7 4 57q7 52 4 61q0 15 2 19q3 4 0 20t-8 21t6 8q11 4 7 12q0 6 4 6q6 6 6 13q7 23 45 20q45 0 61 -22q27 -35 35 -35t12.5 -30.5t1.5 -59.5
q-4 -46 -4 -54q0 -5 -3.5 -25.5t-10.5 -73t-14 -122.5q-6 -58 -13 -86q-4 -86 -14 -96q-8 -8 -2 -16q3 -4 -16 -103q-8 -46 -19 -99t-17.5 -86t-8.5 -46q-5 -30 -5 -31q-10 -43 -19.5 -129.5t-4.5 -114.5q31 38 61 97q23 43 74 122t72 117q9 16 24 36.5t21 29.5
q9 15 29.5 43t31.5 47q33 57 166.5 255t234.5 359.5t103 200.5q0 8 10 12t19 2q29 -6 39 -55.5t-4 -79.5q-31 -85 -85 -186.5t-138.5 -239.5t-110.5 -184q-4 -7 -12.5 -20.5t-12.5 -20.5q-5 -9 -10 -14.5t-8 -12.5q-7 -19 -36.5 -67t-41.5 -62q-8 -9 -14 -16.5t-12.5 -16.5
t-12.5 -16q-8 -10 -12.5 -22.5t-7.5 -16.5q-28 -44 -39 -65q-71 -130 -99 -172q-7 -10 -14 -24.5t-10 -20.5l-56 -99q-6 -12 -33.5 -62.5t-39.5 -76.5q-28 -60 -41 -75q-28 -33 -74 -25q-69 19 -101 85.5t-30 145.5z" />
    <glyph glyph-name="W" unicode="W" horiz-adv-x="1869" 
d="M-12 258q0 156 84.5 409t181.5 447q5 10 14.5 31.5t18 39t14.5 27.5q41 68 57 97q26 46 39.5 68.5t36.5 54t49 59.5q26 29 60 29t73 -39q40 -42 44 -76.5t-17 -77.5q-11 -29 -16 -65t-11 -54q-2 -8 -4 -17t-3 -12.5t-4 -8t-9 -8t-16 -7.5q-11 -2 -17.5 -3t-12 1t-8 4.5
t-9.5 8t-13 10.5q-52 -70 -98 -160q-215 -432 -258 -686q-2 -14 -11.5 -57.5t-11.5 -71.5q-1 -27 -3 -56t9.5 -59.5t36.5 -44.5q20 -2 34.5 3t31.5 17.5t24 16.5q66 38 145 119t138 161q13 17 39.5 41.5t36.5 36.5q6 7 18 24.5t21 24.5q6 4 29 29.5t28 32.5q6 7 22 30
t28 37.5t26 28.5q4 4 26.5 30t22.5 27q4 7 10.5 12t11.5 8l5 3q13 32 74 103.5t75 107.5q10 24 25 47t29 51t22 41q11 17 24 64.5t31 58.5q19 4 26.5 2.5t17 -6.5t12.5 -6q13 -2 23 -10t21 -22.5t17 -20.5q16 -16 16 -18v-5q17 -33 15 -63q-2 -18 -8 -39.5t-18 -56.5
t-13 -38q-6 -17 -16.5 -42t-14.5 -35q-82 -213 -84 -279q-1 -34 1.5 -92.5t11.5 -143t35 -149.5t65 -78q6 -2 12 -2q84 8 200 192.5t210.5 424t157 482.5t50.5 361q-3 15 -3 33t12 21t35 -29l8 -10q9 -11 17.5 -29t14.5 -27t10.5 -22.5t6 -22t4 -27.5t2.5 -22
q8 -78 -6.5 -196.5t-48.5 -253.5t-82 -277t-110.5 -271.5t-129 -231.5t-143.5 -163t-150 -61q-33 0 -63 12q-48 22 -87.5 55.5t-66 67.5t-48.5 84.5t-34 87.5t-23.5 97t-16 92.5t-11.5 93.5q-38 -23 -82 -82q-9 -13 -26.5 -28.5t-22.5 -22.5q-59 -79 -125 -154
q-7 -8 -24 -29.5t-25 -29.5q-23 -23 -75 -93t-89 -96q-3 -2 -12.5 -8t-15 -10t-11 -10.5t-6.5 -12.5q0 -8 -42.5 -38t-51.5 -29q-4 0 -4 -2q0 -5 -29 -12t-49 -7q-89 -3 -154 50q-54 43 -78 73l-8 11q-67 83 -67 235z" />
    <glyph glyph-name="X" unicode="X" horiz-adv-x="1009" 
d="M-453 -377q-2 4 -4.5 7t-3.5 3.5t-1 3.5t1.5 8t5.5 15q14 37 43.5 88t46 76.5t65 95t50.5 72.5q9 13 42.5 53.5t37.5 46.5q12 20 108 134t123 141q3 3 8 10.5t8.5 12.5t4.5 5q10 7 40 47t32 41q16 6 33 29.5t20 42.5q0 30 -51 176q-24 71 -29 90q-2 9 -12 42.5t-21 68.5
t-12 39q-1 3 -6 28q-2 11 -15 60q-36 140 -36 172q0 13 -5 18q-4 3 -8 35q-1 6 -3 24.5t-3 24.5q-3 25 -14 77.5t-17 55.5q-5 3 0 13t0 34q-3 20 -12 29q-5 2 6 8q10 6 21 29t28 31l21 6l20 -14q19 -15 27 -15t36.5 -19t45.5 -36q38 -38 22 -86q-5 -16 0 -64q1 -10 3 -25
t3.5 -25.5t0.5 -14.5q0 -32 8 -53q6 -18 6 -39q0 -11 2 -15q9 -22 16 -73q0 -2 13 -56q10 -45 6 -55q-5 -14 2 -18q9 -6 2 -11q-10 -6 8 -24q12 -12 12 -19q-4 -4 0 -12q6 -12 17 -54t12 -59q0 -22 4 -22q2 -2 21 -49q1 -3 4.5 -17t7.5 -26t8 -13q8 4 19 15q30 30 117 119
t134 135q29 27 79 78.5t63 64.5q4 4 22 25.5t21 23.5q28 20 66.5 59t56.5 54q17 14 41 43q39 45 47 49q4 2 41 35q33 29 37 29q6 0 28 18q14 11 31 20q12 0 32.5 -7.5t20.5 -12.5q0 -6 8 -10t4 -8q-1 -1 0 -3t3 -2q7 0 18 -26l12 -25l-6 -47q-4 -39 -12.5 -52t-38.5 -34
q-42 -30 -96 -84l-33 -33q-5 -5 -25 -22t-24 -21q-23 -33 -75.5 -78.5t-70.5 -66.5q-14 -16 -41.5 -39.5t-36.5 -32.5q-11 -11 -61 -64t-87 -88t-65 -52q-29 -18 -62.5 -61.5t-51.5 -57.5q-5 -4 -9.5 -9.5t-6.5 -8.5t-3 -3q-4 1 -7 1.5t-4.5 1t-2.5 1t-1.5 0t-1 -1.5
t-0.5 -3t-1 -4.5t-2.5 -7t-3.5 -9.5q-7 -13 -8.5 -18.5t-1 -8.5t4.5 -11.5t7 -19.5q3 -13 13.5 -31t12.5 -24q0 -5 11 -16q8 -8 8 -19q0 -10 12 -22t12 -25q-3 -10 11 -24q10 -10 14 -23q2 -8 12 -18q11 -11 11 -13q0 -6 4 -6q6 3 26.5 -23.5t20.5 -37.5q0 -6 6 -6q4 0 8 -9
q6 -12 56 -59t69 -57q32 -20 39 -27q9 -9 43 -22q91 -32 100 -43l9 -11l-11 -10q-27 -27 -71 -27q-32 0 -91.5 23.5t-87.5 46.5q-52 30 -86 64q-12 12 -16 12q-7 0 -31 24t-45 56q-18 27 -43 47q-15 10 -49 63q-43 62 -45 64q-5 8 -24 40t-27 40q-2 2 -11.5 -7.5
t-22.5 -23.5l-13 -14q-4 -4 -10 -7.5t-9 -5.5t-2 -6q0 -13 -0.5 -14.5t-3.5 -0.5t-10 -3q-10 -8 -8.5 -9t8 0.5t6.5 0.5q-2 -4 -4.5 -6.5t-4.5 -3t-3.5 -0.5t-2.5 -1t-1 -4q3 -14 -2 -14q-1 0 -4 4q-4 2 -6 1t-8.5 -7t-8.5 -8l-18 -7q-1 -11 -10 -16.5t-11 -9.5
q-7 -14 -28.5 -39t-28.5 -35q-17 -27 -45 -60.5t-45 -41.5l-15 -8q3 -2 -2 -7q-17 -17 -51.5 -63.5t-56.5 -67.5q-17 -17 -50.5 -69t-68.5 -70q-1 0 -5.5 -9.5t-4.5 -12.5q-7 -20 -36 -52.5t-32 -38.5q-7 -16 -33 -33.5t-37 -5.5q-2 3 -21 8.5t-24 20.5z" />
    <glyph glyph-name="Y" unicode="Y" horiz-adv-x="1208" 
d="M6 113q-67 115 -29 303q10 50 48 158.5t91 234.5t119 219.5t119 93.5q27 0 47 -20q3 -3 31 -23q5 -3 12 -13.5t7 -16.5q-3 -18 -4 -23.5t-6.5 -14t-16.5 -16.5q-51 -38 -137 -202q-13 -25 -32 -73.5t-30 -70.5q-91 -180 -112 -379q-20 -188 102 -188q31 0 78 12
q32 11 57 24.5t37 23t37 31t41 34.5q146 121 266 280q10 13 62.5 82t67.5 90t58 80.5t62.5 92.5t51 85t53 99t40.5 96q8 38 50 29q21 -5 50.5 -24.5t41.5 -37.5q16 -32 10 -53q-3 -10 -21 -86t-32 -113q-10 -28 -39 -114.5t-49 -134.5q-16 -39 -32.5 -83t-35 -97.5
t-29.5 -84.5q-26 -74 -26 -75q-24 -83 -51 -140q-15 -31 -32 -89t-22 -72q-12 -33 -32 -102t-33 -103q-33 -78 -62 -240q-3 -17 -11 -50t-13 -59.5t-6 -50.5q-1 -34 25.5 -72t23.5 -65q-1 -25 -42 -32.5t-61 1.5q-17 5 -30 19t-20.5 30.5t-12 42.5t-6.5 45.5t-2 49.5t1 45
t3 42t2 30q4 48 25 135.5t26 120.5q3 20 12.5 55.5t12.5 46.5q14 61 73 246l44 126q44 126 72 219t15 87q-4 -2 -16 -25t-18 -30q-3 -4 -11 -11.5t-14.5 -14t-7.5 -9.5q-3 -11 -15.5 -23.5t-15.5 -17.5q-45 -67 -102 -133.5t-128 -132t-150 -106t-150 -40.5
q-83 0 -158.5 40.5t-120.5 111.5z" />
    <glyph glyph-name="Z" unicode="Z" horiz-adv-x="1193" 
d="M4 -131q-2 4 -7 12q-24 41 -32.5 60.5t-8.5 50.5t17 69q17 39 62 85t88 77q3 2 29.5 24.5t42.5 33.5l26 26q12 4 27 14t32.5 24.5t24.5 19.5q52 37 184 130t225.5 162.5t176.5 137.5q8 6 34 27t32 26.5t27 23t27 23.5t23 22t24 25.5t21 26t23 31t20.5 33.5t22.5 40
q1 1 4.5 8.5t4.5 9t4 8t3 8.5t1 7.5t0 8.5t-2 7.5t-4 8.5t-7 8q-51 34 -211 22q-19 -2 -72 -3.5t-78 -4.5q-14 -2 -28.5 -3t-26 -3t-28.5 -8q-25 -11 -61.5 -16.5t-49.5 -10.5q-21 -8 -59.5 -20.5t-59.5 -20.5q-18 -8 -52 -20.5t-61 -24t-51 -24.5q-20 -11 -21 -14t10 -1h5
q-2 -2 -26 -12q-26 -11 -26 -16t-11 -11q-68 -37 -121 -90q-7 -7 -17 -20.5t-17.5 -21t-16.5 -7.5q-14 0 -35 21q-18 18 -23 18q-5 3 -18.5 27t-13.5 30q0 9 5 20t9 11t13.5 13t12.5 18q1 2 6.5 6t6.5 6q4 10 15 19t15 16q2 3 13 14q87 87 256 155t334 99t295 31
q57 0 94.5 -3t85 -19.5t78.5 -47.5q86 -102 49 -241q-10 -37 -20.5 -64t-27.5 -50.5t-29 -37.5t-39.5 -42t-43.5 -46q-11 -12 -28 -25t-23 -20q-9 -11 -18 -15t-15 -10q-33 -33 -92 -71q-19 -13 -38 -34.5t-34 -31.5q-80 -41 -123 -84q-9 -9 -22 -17t-17 -11
q-8 -6 -22.5 -12.5t-18.5 -10.5l-10.5 -10.5l-9 -9l-7 -7t-7 -6t-6.5 -5t-7.5 -5.5t-9 -4.5t-11.5 -5.5t-14 -6q-30 -12 -37 -21q-4 -5 -10 -16q-4 -7 -15.5 -2.5t-12.5 -5.5q-5 -24 -83.5 -86t-115.5 -82q-40 -23 -117 -91t-84 -94q-4 -14 15.5 -21t56.5 -7q43 0 111.5 8.5
t119.5 17.5t108 20t58 11q26 4 131 25t156 26q17 2 64 11.5t67 9.5q15 1 21 4.5t26 1.5q2 0 8.5 4.5t18 8t26.5 1.5q7 -1 41 6q4 1 12 3.5t10.5 2.5t4.5 -2q0 -9 10.5 -6.5t12.5 -3.5l2 -12q0 -7 -9 -24t-12 -17q-29 -21 -31 -23q-11 -11 -19 -15t-18.5 -7.5t-21.5 -9.5
q-26 -15 -110.5 -33.5t-92.5 -24.5l1 -2q-2 -5 -11 -6q-19 1 -19 0q-1 -2 -6 -4q-24 -12 -126 -27q-60 -10 -64 -14q-19 -12 -76.5 -24.5t-93.5 -16.5q-9 -2 -29.5 -2t-25.5 -2q-88 -34 -164 -43q-93 -10 -164 14q-58 24 -84 70zM891 602q-2 1 -2 0l3 -5l1 1q0 4 -2 4z
M281 -205l-1 1q-1 -2 -1 -3z" />
    <glyph glyph-name="bracketleft" unicode="[" horiz-adv-x="679" 
d="M-109 -96q-6 10 -2 14q5 5 5 21q0 7 1.5 9.5t6.5 0.5q11 -3 19 7t11 30q4 24 0 28q-5 3 -2 107q0 24 -2 26q0 11 6 46q7 35 11 63q1 4 16 68q2 10 6.5 24t7 23t2.5 12q1 4 9 20q1 2 3 8.5t6 18.5l7 21q17 50 29 79l18 43q0 5 4 9q2 2 6 14q0 12 7 12q6 6 6 17q0 6 6 18
q6 6 16 35q5 14 27 63q14 31 14 37q0 1 6 13t22.5 56t16.5 48q16 33 17 33v2.5t2.5 7t3.5 10.5q1 3 14 29q0 11 8 27q9 19 16.5 37t10.5 28.5t2 11.5q-4 5 4 13q6 6 6 18q0 8 4 8q6 0 2 8q-6 12 2 36t19 32q6 4 13 18t9 23q1 2 3 11.5t3 13.5q3 10 0 20q-3 13 5 23
q12 16 12 22q0 8 12 16q14 9 33 3q47 -13 76 -50q16 -18 18 -59q0 -5 1 -11l1 -5q0 -2 21.5 -1.5t38.5 3.5q14 2 32 2q12 0 54 4t79 8.5t37 5.5q2 2 25 2q23 -2 27 -16q15 -42 -7 -64q-12 -12 -12 -16q2 -1 -6 -5q-26 -13 -33 -11q-1 1 -2.5 0t-1.5 -3q-2 -6 -13 -9t-16 1
q-5 5 -5 1q0 -2 1 -3q1 -3 -1.5 -4.5t-8.5 -3.5q-9 0 -34.5 -7t-35.5 -13q-7 -5 -41 -9q-59 -8 -116 -28q-15 -5 -27 -8q-15 -4 -26 -23q-14 -24 -21.5 -48.5t-5.5 -33.5q0 -10 -4 -10q-2 0 -10 -19q-6 -18 -11 -18q-5 3 -8 -12q-10 -43 -16 -56l-4 -8q0 -1 -1.5 -3.5
t-3.5 -7.5t-4 -9q-8 -19 -6 -21q1 -4 -11.5 -39.5t-18.5 -46.5q-2 -3 -8 -17t-23.5 -54t-36.5 -84q-6 -13 -31 -76q-4 -9 -10 -24t-9.5 -23.5t-4.5 -12.5q-6 -23 -24 -65.5t-21 -44.5q-2 0 -2 -10q0 -12 -5 -17q-12 -12 -12 -55q0 -17 -6 -29q-7 -15 -16 -67
q-21 -133 -19 -140q3 -6 21 0q19 5 30 2q13 -4 80 11q3 3 90 14q67 8 76 9t23 -3q12 -8 12 -18q1 -14 -2 -34t-6 -22q-6 0 -6 -8q0 -1 -13 -14q-10 -10 -10 -12q-2 -6 -55 -25q-46 -16 -68 -27q-26 -13 -47 -16q-35 -7 -47 -10q-122 -29 -145 -19q-10 3 -17 0q-5 0 -14 9
q-8 8 -14 8q-7 0 -7 6q0 7 -18 18q-12 7 -15 13t-3 20q0 22 -7 29z" />
    <glyph glyph-name="backslash" unicode="\" horiz-adv-x="665" 
d="M223 985q-5 3 -1.5 21.5t9.5 21.5q9 4 9 14q4 13 10 13q7 4 10 12q5 14 37.5 30.5t44.5 10.5t18 -8q12 -4 20.5 -17t6.5 -22q0 -8 4 -12q8 -4 4 -29q-7 -54 8 -102q5 -19 3 -23q0 -13 4 -21q1 -3 10 -65q11 -81 18 -88q2 -2 2 -16q-4 -11 4 -56q24 -149 27 -172
q0 -12 4 -20q4 -9 8 -41q3 -35 11 -78q8 -46 8 -74q4 -35 6 -39q4 -9 -2 -69q-4 -37 -2 -39q5 -14 2 -37q0 -2 1 -7t1 -7q2 -6 -4 -80q0 -31 -33 -54q-20 -14 -39 5q-6 6 -13.5 26.5t-4.5 22.5q2 2 -2 16t0 18q2 3 1.5 8.5t-3.5 8.5q-4 4 -13 72q0 6 -6 6q-7 -2 -7 10
q0 4 1 10q0 25 -2 27q-6 6 -6 14t6 10q3 1 3.5 3t-1.5 4t-6 4q-14 6 -14 39q0 16 -5 28q-4 12 -4 35q3 9 -2 14q-8 0 0 4q3 3 -4 7q-4 0 -12 16q-6 13 6 25q5 6 5 7t-7 3q-8 2 -12.5 8.5t-1.5 15.5q0 11 -4 19q-14 28 -11 57q0 11 -6 23q-14 28 -14 73q-2 8 -10.5 53
t-8.5 50q0 6 -2 8q-4 0 -8 23q-1 5 -3 19t-3 19q-14 63 -14 105q-4 8 -4 22q0 19 -4 31t-7.5 39t-1.5 35q0 6 -4 10z" />
    <glyph glyph-name="bracketright" unicode="]" horiz-adv-x="702" 
d="M186 -92q-12 13 -13.5 19t3.5 18q6 19 4 20q-6 3 -2 12q3 6 13 8t14 -3q6 -6 101 11.5t134 31.5q11 4 14 17t3 54q0 14 -1 40t-1 32q11 140 28 184q4 9 7.5 24.5t3.5 16.5q1 4 12 42.5t22 66.5q13 32 19 57q19 70 37 100q8 15 4 19q0 6 4 8q8 8 24 55q14 39 31 80
q12 24 12 35q0 7 7 21q5 11 57 157q3 8 14 41q1 1 3.5 12t4.5 15l5 18l-21 -2q-29 -5 -43 -12q-20 -10 -24 -10q-1 0 -4.5 -1.5t-9.5 -3.5t-11 -4q-21 -7 -21 -6q-2 1 -3 0t1 -2q2 -4 -2.5 -8t-17 -7t-31.5 -5q-26 -3 -45 -8q-29 -6 -49 2q-23 10 0 39q10 12 4 14
q-7 2 18 18q4 3 9 6q37 22 37 29q2 8 22 22.5t29 14.5q6 0 10 4q8 16 47.5 32.5t63.5 16.5q14 0 30 8q18 9 25 9q15 0 21.5 4.5t9.5 19.5q0 19 8 23q11 6 20 20q16 27 43 15q18 -9 19 -9q3 0 13.5 -12t10.5 -16q0 -1 9 -15l20 -30q7 -13 8 -22.5t-4 -37.5q-22 -99 -31 -112
q-4 -4 -8 -27t-8 -27t-8 -30q-6 -20 -37 -105.5t-43 -111.5q-10 -39 -37 -95q-5 -5 -8 -20q-2 -10 -14 -27q-11 -22 -13 -35q-3 -21 -10 -24q-4 0 -8 -21q-3 -18 -10 -24q-7 -7 -7 -21q-3 -12 -8 -22q-37 -74 -43 -101q-4 -20 -10 -26t-14 -37q-9 -30 -17 -47q-8 -16 -8 -25
q3 -3 -8 -30q-11 -28 -8 -31q1 -3 -8.5 -64.5t-12.5 -74.5q-4 -17 0 -25q5 -10 24 -32.5t27 -26.5q6 -3 4.5 -24t-8.5 -40q-13 -33 -71 -33q-66 0 -121 -14q-4 -1 -14.5 -1.5t-28.5 -1t-31 -1.5q-69 0 -100 8q-39 9 -58 31z" />
    <glyph glyph-name="asciicircum" unicode="^" horiz-adv-x="737" 
d="M139 834q-12 12 -4 45q0 4 27 34q26 30 26 35q0 1 101 117q96 110 96 115q-3 3 4 6q15 8 72 86q37 53 45.5 62.5t19.5 15.5q15 8 33 4q19 0 23 2q7 4 29 -9t28 -24q17 -27 27 -166q0 -9 10.5 -75.5t13.5 -69.5l4 -17q0 -13 8 -41q6 -22 7.5 -69t-4.5 -49q-5 0 -5 -7
q-11 -22 -18 -22h-20q-19 2 -30.5 11t-23.5 32q-36 71 -51 119q-6 21 -18.5 74.5t-12.5 60.5q3 30 -24 0q-38 -46 -39 -47q-47 -62 -68 -86q-34 -39 -63 -78q-70 -92 -94 -98q-14 -3 -17 0q-4 4 -18 0q-12 -3 -34 6.5t-22 17.5q0 7 -8 15z" />
    <glyph glyph-name="underscore" unicode="_" horiz-adv-x="1746" 
d="M117 -31q-7 10 -4 62q1 17 9 28t17 11q7 0 13 6t28 4q131 -14 291 -2q27 2 281 2q178 0 246 -2.5t165 -14.5q20 -2 56 -6l36 -4q50 -6 54 -12q2 -3 2 -8q4 -33 0 -45q-17 -21 -60 -21q-32 -4 -34 -6q-8 -4 -33 -4q-27 1 -60 -0.5t-37 -3.5q-6 -6 -79 -6q-31 -4 -31 2
q0 4 -16 0q-39 -10 -150 -10q-3 0 -28.5 -1t-41.5 -1q-73 -5 -106 -5q-66 -4 -88 -4q-148 -8 -156 -8q-14 0 -14 -4q0 -2 -6 -2q-7 4 -11 0q-3 -3 -70.5 -6t-84.5 0q-31 3 -42.5 8.5t-23.5 24.5q-12 18 -22 28z" />
    <glyph glyph-name="grave" unicode="`" horiz-adv-x="292" 
d="M143 887q0 6 -1 15.5t-1 10.5q0 17 18.5 44.5t41.5 27.5q21 0 41 -27q23 -33 58.5 -97t35.5 -83q0 -6 -5 -12t-16 -6q-21 0 -88 43q-59 47 -75 59q-5 5 -5 10q-1 2 -2 7.5t-2 7.5z" />
    <glyph glyph-name="a" unicode="a" horiz-adv-x="972" 
d="M43 14q-57 20 -81 65t-16.5 103t33 124t67.5 130t87 119t91 93t81 50q37 13 65 6.5t42.5 -20t40.5 -25t59 -8.5q32 3 89.5 -37.5t49.5 -56.5q-26 -52 -39.5 -116t-13 -120.5t8.5 -104t24 -73.5t35 -22q49 11 128 53.5t171 118.5q14 11 11 -4q-8 -37 -66 -117
q-101 -136 -201 -166q-17 -5 -33 -6q-65 -1 -109 21.5t-68 69.5t-35 103t-13 134q-34 -54 -75.5 -107.5t-98.5 -111.5t-119 -85.5t-115 -9.5zM399 551q-6 14 -18 14q-34 0 -106.5 -92.5t-130 -199.5t-54.5 -146q2 -27 75 48q19 18 46 48q41 45 119 171.5t69 156.5z" />
    <glyph glyph-name="b" unicode="b" horiz-adv-x="790" 
d="M76 -35q-23 0 -46.5 11.5t-45 36.5t-29 64.5t1.5 94.5q32 168 78.5 352.5t118 443t94.5 347.5q14 55 74 55q40 0 68 -27t18 -69q-17 -68 -83 -281.5t-69 -226.5q-18 -62 -22.5 -85.5t-0.5 -23.5t26 21.5t59 43t77 21.5q52 0 99 -32q73 -49 96 -115.5t18 -163.5
q-5 -100 -57 -213q62 39 126.5 85.5t102 77t43.5 38.5q12 -4 -6.5 -39t-65 -88.5t-107.5 -110.5t-145 -111t-167 -83q-49 -17 -96 -17q-32 0 -49 19.5t-16.5 47t8.5 55t24.5 46t32.5 17.5q98 -7 175 118q64 104 76 223q11 105 -32 124q-9 4 -19 4q-78 -3 -213 -275
q-8 -16 -10 -26q-7 -36 -47 -166.5t-49 -167.5q-6 -25 -41 -25z" />
    <glyph glyph-name="c" unicode="c" horiz-adv-x="608" 
d="M47 76q-31 29 -52 87t-20 109q3 103 101.5 242.5t208.5 198.5q48 26 84 26q42 0 69 -41q31 -45 4 -137q-21 -72 -51 -90q-13 -8 -22 0q-20 16 -27 49l-8 35l-33 -25q-32 -25 -94 -102.5t-103 -156.5t5 -103q41 -18 92 -18q155 0 397 159q19 8 15 -9q-10 -37 -81 -111
q-121 -127 -246 -166q-43 -13 -83 -13q-87 0 -156 66z" />
    <glyph glyph-name="d" unicode="d" horiz-adv-x="952" 
d="M45 12q-67 28 -85.5 93t3.5 142.5t63.5 158t89 143.5t85.5 96q4 3 16 11l18 12t16.5 9.5t20 7.5t19.5 1q43 -13 65.5 -34t32.5 -46.5t12 -27.5q14 -18 81 88q99 155 222 409q18 36 23 49q10 24 22 57t25 70.5t19 53.5q9 22 30 22q35 0 79.5 -41t35.5 -61
q-182 -364 -293 -754q-14 -52 -28 -158t-11 -149q3 -49 47 -49q52 0 144.5 57.5t128.5 93.5q25 25 37 29q17 6 13 -9q-5 -20 -22 -40q-34 -52 -63.5 -89.5t-71.5 -76.5t-91.5 -59.5t-104.5 -20.5q-68 0 -108.5 46t-41.5 134q-2 97 21 240q0 4 8 46l8 42q-63 -110 -107 -180
q-224 -366 -358 -316zM123 285q-62 -144 -33 -144q26 0 100.5 95t124 196.5t13.5 114.5q-21 8 -53 -22t-64.5 -83t-52 -89t-35.5 -68z" />
    <glyph glyph-name="e" unicode="e" 
d="M-14 156q-25 56 -16.5 124t49 139.5t92.5 130.5t114 96.5t113 37.5q34 0 61 -18q62 -41 83 -109t-11 -121q-38 -61 -117.5 -106t-143 -61t-97.5 -15q-16 0 -21 -27q-6 -22 -2 -43q4 -22 19 -37q27 -10 65 -10q176 0 438 195q18 9 13 -6q-9 -35 -84 -115
q-130 -137 -259 -183q-51 -18 -96 -18q-72 0 -125 45q-65 54 -75 101zM381 553q-45 -21 -110 -73.5t-101 -94.5q39 -7 110.5 38t110.5 91q28 32 16 42q-7 5 -26 -3z" />
    <glyph glyph-name="f" unicode="f" horiz-adv-x="679" 
d="M-10 389q-27 25 -41 47.5t-10.5 45.5t32.5 38q15 8 62.5 19.5t64.5 11.5q33 3 43 12.5t25 52.5q5 13 28.5 79.5t28.5 80.5t25.5 69t28.5 74t27.5 66t33 73t33.5 66.5t40.5 76t43.5 73.5q10 16 25 36t43.5 51t58.5 53.5t69.5 36t75.5 7.5q59 -18 81.5 -71.5t10.5 -111
t-47 -97.5q-22 -25 -31 -25q-12 5 -3 38t7 71t-28 38q-12 0 -35 -10q-45 -22 -100.5 -102t-102 -179.5t-85.5 -196.5t-61 -162.5t-20 -69.5q19 0 132.5 23.5t158.5 23.5q30 0 41 -11q20 -19 -8.5 -47.5t-83.5 -56.5t-93.5 -44.5t-62.5 -25.5q-90 -34 -114 -57t-45 -102
q-2 -6 -7.5 -29t-12 -46.5t-11.5 -43.5q-38 -140 -59.5 -334.5t-4.5 -237.5q4 -12 -3.5 -20t-22.5 -8q-27 0 -53 30.5t-35 96.5q-14 68 -7.5 190t14.5 195t17 131q4 24 13.5 74t11.5 65q4 33 2 43q-1 5 -21 2.5t-39 -6t-30 3.5z" />
    <glyph glyph-name="g" unicode="g" horiz-adv-x="751" 
d="M27 -666q-129 35 -167 186q-24 97 -4 181q9 40 22 37q3 -1 5 -4q11 -15 15 -35q2 -35 25 -99t64.5 -117t82.5 -38q62 22 136 150.5t130.5 287t96.5 311t44 230.5l2 39q-10 -16 -51.5 -89.5t-73.5 -122t-79.5 -109.5t-97 -93.5t-97.5 -32.5q-28 0 -57 13q-59 28 -69.5 92
t17 137t62.5 134.5t69 101.5q62 73 107 101t100 28q58 -4 74 -17q19 -16 29 -16q1 0 8.5 10t20 29t24.5 39q24 39 70 39q40 0 76.5 -29.5t39.5 -59.5q3 -43 -6 -124t-29 -186t-52.5 -222.5t-72.5 -233t-92 -217.5t-108.5 -176t-125 -109t-138.5 -16zM283 477
q-44 -26 -100 -108t-90 -156.5t-25 -89.5q8 -14 71.5 65.5t123.5 167t75 113.5q14 27 10 29q-2 1 -16 0q-15 0 -49 -21z" />
    <glyph glyph-name="h" unicode="h" horiz-adv-x="907" 
d="M-61 59q-10 68 75.5 377t180.5 597t127 358q14 28 47 28q26 0 58 -16t51.5 -34.5t15.5 -27.5q-30 -72 -156 -457.5t-119 -391.5q20 31 87.5 87.5t148.5 103t123 40.5q21 -3 34 -13t33 -36l12 -12q26 -37 23 -76q-3 -47 -43 -162q-42 -119 -51 -170q-12 -79 43 -88
q17 -4 22 -2q34 1 78.5 18t77.5 39q16 11 41.5 29t40.5 28.5t18 10.5q13 10 19 10q15 -3 -27 -63q-47 -67 -120.5 -124.5t-139.5 -60.5q-25 0 -43 4q-82 18 -133 86.5t-37 159.5q11 71 68 254q-59 -36 -145.5 -127.5t-163.5 -210.5t-93 -207q3 -13 -39 -16q-29 -2 -44 2.5
t-34 23.5q-36 36 -36 39z" />
    <glyph glyph-name="i" unicode="i" horiz-adv-x="473" 
d="M-49 178q-1 125 76.5 315t128.5 226q20 9 62.5 -21.5t57.5 -62.5q-49 -54 -121 -229q-84 -207 -77 -284q3 -30 22 -30q96 -7 371 211q17 -36 -75 -140t-185 -169q-41 -27 -80 -27q-71 0 -125.5 71t-54.5 140zM266 883q-48 57 -12 137q15 34 26.5 47.5t26.5 13.5t39 -12
q38 -19 44.5 -54t-19.5 -81q-37 -62 -80 -62q-17 0 -25 11z" />
    <glyph glyph-name="j" unicode="j" horiz-adv-x="290" 
d="M-406 -674q-147 38 -205 181q-38 92 -24 176q7 45 25 45q3 0 23 -49t46.5 -107t69 -107t84.5 -49q52 0 104 78q89 135 203.5 534.5t155.5 624.5q5 31 47 31q35 0 75 -20t42 -37q6 -65 -67 -334.5t-172.5 -547t-158.5 -353.5q-61 -78 -164 -78q-40 0 -84 12zM176 958
q-14 28 1.5 83t43.5 75q23 17 63 -3t48 -52q7 -29 -19.5 -78.5t-63 -79.5t-54.5 -12q-13 13 -13 33q0 19 -6 34z" />
    <glyph glyph-name="k" unicode="k" horiz-adv-x="739" 
d="M-92 -47q-1 101 24 217t95 334q23 70 92 305q50 178 117 391q17 56 14 70q-3 15 11 22.5t46 7.5q31 0 64 -36q52 -58 26 -115q-16 -32 -32 -81.5t-23.5 -85.5t-1.5 -36t-6 -8q-11 -7 -15 -35q-3 -26 -16.5 -73t-21.5 -58q-11 -15 -21 -59q-9 -36 -37 -123
q-25 -73 -33 -119q-2 -10 -5.5 -22t-6.5 -21.5t-4 -11.5q-2 -6 47 38q16 15 41 38q76 71 193 165q78 64 104 56q20 -6 52.5 -43.5t35.5 -59.5q0 -18 -92 -92q-84 -67 -159 -138t-74 -81q1 -8 60.5 -8t143 7.5t142.5 20.5q52 10 65 2.5t2 -40.5q-10 -32 -35 -49.5t-86 -38.5
q-80 -27 -122.5 -33.5t-102.5 -1.5q-147 6 -209 98q-11 18 -23.5 30.5t-17.5 12.5q-12 0 -4 -8t-2 -15q-11 -7 -8 -22q4 -18 -12 -41q-15 -23 -7 -31t-4 -12q-9 -3 -32.5 -113.5t-24.5 -160.5q-1 -45 -12.5 -75t-26.5 -30q-11 0 -45 21q-31 20 -41 48t-12 93z" />
    <glyph glyph-name="l" unicode="l" horiz-adv-x="557" 
d="M147 8q-176 56 -153 340q3 39 10 76.5t20.5 81.5t23 72t31 84.5t30.5 82.5q54 147 59 166q11 46 67 171t130.5 245.5t117.5 120.5q29 0 74 -39q40 -36 40 -98.5t-42 -165.5q-40 -94 -80 -156q-137 -213 -215 -325q-77 -109 -86 -160q-5 -28 -10 -33q-8 -8 -20.5 -82
t-14.5 -104q-8 -96 3 -132q11 -38 40 -47q38 -13 99 7t125 60t112.5 76t85.5 68q18 15 22 15q8 0 -16 -37.5t-31 -44.5q-18 -17 -63 -69t-74 -77q-132 -106 -225 -106q-27 0 -60 10z" />
    <glyph glyph-name="m" unicode="m" horiz-adv-x="1234" 
d="M-113 55q-4 27 38.5 159t97 286t65.5 200q15 61 34.5 80t51.5 4q23 -11 47 -43t27 -57q6 -22 -12 -94q-17 -66 -9 -62q16 8 43 32.5t50.5 48t55 42.5t58.5 19q26 0 49 -17q50 -42 66 -104q3 -14 10 -14q8 0 49 38q85 78 139 106t89 11q19 -9 50 -47t40 -63q9 -22 10 -23
q4 -4 0 -63q0 -9 -4 -25q-12 -50 -45.5 -145.5t-46.5 -145.5q-14 -56 -11 -72q6 -29 48 -22q136 24 346 219q23 22 21 4q-1 -10 -9 -28q-42 -95 -134.5 -184t-187.5 -113q-70 -18 -144 20.5t-87 106.5q-9 43 63 270q34 110 37 137q3 20 0 22t-18 -8q-44 -26 -175 -182.5
t-128 -185.5q2 -14 -14 -27.5t-35 -13.5q-40 -1 -62 21t-25 57t1 78.5t16.5 86t21.5 79t15.5 57.5t-0.5 22q-35 0 -113 -107t-165 -250t-109 -171q-11 -14 -29 -14q-24 0 -48 23t-28 52z" />
    <glyph glyph-name="n" unicode="n" horiz-adv-x="747" 
d="M-41 23q-24 20 -28 30.5t-3 42.5q4 67 91.5 335.5t119.5 268.5q15 0 47.5 -25t38.5 -40q10 -23 -32 -113q-16 -38 -37.5 -101.5t-20.5 -72.5q0 -1 19.5 19t50.5 51t65 62t67.5 55t53.5 28q53 11 91 -31.5t40 -91.5q0 -11 -12.5 -102t-10.5 -158t33 -65q25 -1 67.5 22.5
t79 52t66.5 53.5t31 25q3 3 2 -2q-3 -25 -45 -87q-89 -130 -192 -148q-33 -6 -66 2q-112 25 -96 200q0 41 6 97q7 82 4 84q-20 10 -139.5 -133t-143.5 -197q-30 -68 -44.5 -83t-47.5 -9q-19 3 -55 31z" />
    <glyph glyph-name="o" unicode="o" horiz-adv-x="657" 
d="M-23 94q-37 92 -12.5 207.5t91.5 228t149 177.5q15 12 28 12t27.5 -10t24.5 -21t27.5 -32.5t27.5 -32.5l35 26q5 6 22.5 0t28.5 -24q17 -27 100.5 -57.5t165.5 -30.5q85 0 135 34q10 10 9 4q-2 -15 -41 -52q-101 -95 -236 -98q-14 0 -29 1q9 -137 -96 -281
q-133 -182 -280 -182q-54 0 -103.5 40t-73.5 91zM223 481q-31 -38 -83 -150q-90 -197 -46 -236q11 -10 29 -9q73 11 172 125q55 62 82 135t22 133q-16 4 -24 8q-10 5 -32 15t-29.5 15t-14.5 19t-6 35q-6 -5 -15 -15.5t-16 -20t-19.5 -27.5t-19.5 -27z" />
    <glyph glyph-name="p" unicode="p" horiz-adv-x="727" 
d="M-229 -657q-2 142 41.5 334.5t116.5 436t96 339.5q40 171 47 237q8 72 45 72q21 0 49.5 -24t49 -47.5t22.5 -22.5q2 0 9.5 2t12.5 4q32 14 57 14q54 0 109 -38.5t92.5 -100.5t51 -140.5t-16.5 -158.5q207 63 211 65q16 -11 -9.5 -40t-103 -75.5t-192.5 -95.5
q-103 -103 -191 -129q-38 -11 -66 23t-37.5 78t-4.5 71q39 7 190 48q97 77 85 209q-9 90 -58 147q-36 41 -66 27q-60 -28 -159.5 -334.5t-166 -620.5t-48.5 -373q4 -15 -7 -22.5t-34 -7.5q-44 0 -84 31.5t-41 91.5z" />
    <glyph glyph-name="q" unicode="q" horiz-adv-x="710" 
d="M-70 135q-7 62 38.5 168.5t119 205t141.5 138.5l25 15q41 24 80 24q23 0 46.5 -9.5t38 -16.5t21.5 -3q8 4 50.5 52t62.5 63q11 8 29 8q30 0 64 -25t48 -50q13 -25 -18 -80q-46 -78 -139 -360.5t-161 -578t-38 -368.5q6 -14 -7 -20.5t-34 -6.5q-45 0 -77.5 28t-33.5 73
q-5 123 29.5 276t98 350.5t83.5 278.5q9 37 8 38q-2 1 -10 -9q-29 -33 -66.5 -89t-63.5 -94.5t-72.5 -76.5t-102.5 -54q-58 -7 -106 29.5t-54 93.5zM80 180q-2 -11 2 -10q9 1 86 96q146 181 211 295q-54 -18 -73.5 -31.5t-63.5 -60.5q-44 -49 -101.5 -150.5t-60.5 -138.5z
" />
    <glyph glyph-name="r" unicode="r" horiz-adv-x="630" 
d="M-59 35q-10 15 -12 29t1 51l52 207q36 106 69.5 225.5t32.5 140.5q0 21 31 21q17 0 35 -11q52 -35 40 -116l-8 -50q0 -6 33 31q72 80 123 80q24 0 44.5 -15.5t36.5 -46t27.5 -58t25.5 -68.5q3 -10 5 -15q28 -84 72 -84q28 0 58.5 27t78.5 82q7 -47 -63 -118t-123 -71
q-160 3 -195 226q-57 -73 -86 -124.5t-63 -131.5t-60 -133q-36 -77 -50.5 -98t-29.5 -21q-29 5 -45 13t-30 28z" />
    <glyph glyph-name="s" unicode="s" horiz-adv-x="483" 
d="M57 -70q-31 -9 -64.5 24.5t-49.5 75.5t-4 56q22 25 51 25q15 0 47 4q90 38 133 53q-3 9 -10 16q-18 18 -62.5 43t-78 51.5t-42.5 59.5q-18 66 8 131t77.5 109.5t113 72t113.5 27.5q42 0 69 -21q24 -19 42 -68t12 -79q-13 -33 -27 -33q-8 0 -22 13t-21 16q-34 13 -96 -8.5
t-110 -60.5t-44 -70q2 -16 23 -33.5t47 -32.5t54.5 -42.5t41.5 -59.5q92 28 148 28q21 0 31.5 -5.5t8.5 -14.5q-25 -8 -178 -92q-10 -68 -70.5 -114.5t-140.5 -70.5z" />
    <glyph glyph-name="t" unicode="t" horiz-adv-x="454" 
d="M12 -115q-25 1 -42 15.5t-24 43t-8.5 62.5t5.5 82t15.5 94t24 105.5t29 108t31.5 110.5q-5 0 -11 -1l-5 -1l-68 -19q-12 0 -14 2q-11 5 -27 19.5t-16 21.5q0 9 -4 17q-13 27 -11 63q1 29 18 39t68 15h54q2 0 6 2t6 2q5 0 12 1t19 3t22 4l49 162q29 94 63 190t57.5 158.5
t25.5 68.5q14 41 47 41q42 0 79.5 -48t20.5 -89q-33 -82 -96 -266l-66 -195q80 9 166 15q50 4 56 6q38 11 51 -2q23 -23 -16 -60.5t-68 -46.5q-20 -7 -46 -16.5t-39 -14t-18 -4.5q-8 0 -24 -4q-12 -4 -19 -4l-24 -4q-20 -4 -23 -4q-22 -4 -45 -12q-203 -620 -192 -658
q-6 -2 -19 -2z" />
    <glyph glyph-name="u" unicode="u" horiz-adv-x="917" 
d="M-20 152q-16 66 10.5 181.5t76 210.5t91.5 107q22 6 33 1t34 -31q34 -37 35.5 -59t-27.5 -56q-31 -33 -65.5 -111.5t-48.5 -144.5q-18 -80 -10 -84q2 -1 6 0q17 0 196.5 201.5t249.5 298.5q20 26 49 26q32 0 69.5 -27.5t58 -58t12.5 -39.5q-57 -68 -159 -273t-36 -202
q51 2 104 22t104 55t86 63.5t79 68.5q16 15 3 -20q-7 -18 -16 -35q-53 -105 -157.5 -176.5t-196.5 -77.5q-50 -4 -83 10t-46 40.5t-17 59.5t2 71t14 70.5t17 62.5q4 11 5 16q0 2 -15 -15l-24 -28q-11 -14 -17 -21q-7 -8 -36.5 -45.5t-49 -59t-48 -52.5t-54.5 -50.5
t-49 -27.5q-55 -12 -110 27.5t-70 101.5z" />
    <glyph glyph-name="v" unicode="v" horiz-adv-x="565" 
d="M-10 133q-10 32 -12 64t0.5 51.5t9.5 56t10 57.5q9 60 37 165t37 153q6 25 22 25t39 -17.5t38.5 -35.5t14.5 -21q-2 -39 -18 -86q-5 -15 -9.5 -43t-6.5 -37q-57 -277 -13 -281q8 -1 38.5 40t57 81t33.5 53q287 501 269 553q-2 5 4 9t16 4q30 0 55.5 -23.5t18.5 -71.5
q-7 -52 -68.5 -188.5t-142.5 -282.5t-174 -255t-152 -103q-2 0 -4.5 1t-3.5 1q-28 9 -56.5 52.5t-39.5 78.5z" />
    <glyph glyph-name="w" unicode="w" horiz-adv-x="999" 
d="M-35 96q-26 55 6 182t86.5 243t98.5 169q13 17 22.5 20t24.5 -3q26 -7 53.5 -31.5t38.5 -57.5q-4 -4 -4 -8q-36 -62 -123 -250q-3 -7 -15.5 -33t-20.5 -45t-18 -44.5t-14 -46t-2 -33.5q56 19 267 338q65 98 81 125q3 5 12.5 25.5t18.5 23.5q32 12 65 -18t46 -66
q11 -22 8.5 -41t-7.5 -26.5t-16 -22t-16 -27.5q-20 -47 -21 -159t27 -146q36 -13 88 57q80 106 137 258q27 85 33 164q3 51 -8 86q-6 18 -6 29q0 12 14 12q39 -3 76 -61q54 -66 45 -195q0 -6 -8 -76q-25 -124 -143 -278t-222 -148q-39 3 -75 31q-50 41 -66 96t-20 140v5
q0 16 -0.5 19.5t-4 0t-10.5 -16.5q-1 -3 -2 -4q-133 -224 -227 -271q-27 -12 -55 -12q-44 0 -83.5 27t-60.5 69z" />
    <glyph glyph-name="x" unicode="x" horiz-adv-x="813" 
d="M133 465q-46 -103 -108.5 -183.5t-110.5 -80.5q-16 0 -27 8q45 45 85.5 122t81.5 178t59 136q1 2 2 6t2 6q12 24 43.5 42.5t57.5 24.5l26 7q5 -18 17.5 -90.5t22.5 -137t11 -65.5q1 -4 30 28t81 91q125 143 190 143q42 0 63 -59q36 -94 -22 -109q-42 -12 -217 -221
q-53 -63 -62 -96t19 -59q33 -29 80 -29q46 0 109 26t108 55t100.5 67t65.5 44q16 0 -20 -63q-27 -47 -60 -84q-67 -75 -160 -137t-166 -55q-69 6 -109.5 38.5t-76.5 100.5q-3 -3 -22 -27.5t-30 -37t-30.5 -33.5t-39.5 -37t-42 -29q-20 -10 -35 -10q-34 0 -71 28t-56 56.5
t-10 29.5q44 5 112 55.5t115 104t41 70.5q-28 76 -47 176z" />
    <glyph glyph-name="y" unicode="y" horiz-adv-x="770" 
d="M113 -688q-140 -7 -226 87.5t-84 231.5q0 10 2 28.5t9.5 38.5t17.5 19q3 -2 22 -48t42.5 -99t62 -101t76.5 -55h6q19 -3 37.5 5t37 29t32.5 38.5t31 53t25.5 52.5t23.5 56t17 45t13 37q17 48 133 356q89 236 111 301l9 27q-1 2 -5 -2q-17 -17 -108 -120t-165 -170.5
t-127 -82.5q-31 -8 -65 7.5t-57 41.5q-29 33 -30.5 91.5t18 122.5t51 133.5t65.5 126.5t66 100q8 8 20 8q22 0 51.5 -23.5t40.5 -42.5q15 -27 15 -39.5t-19 -38.5q-23 -26 -102.5 -184t-50.5 -158q6 0 34 25q113 108 245 252.5t210 251.5q41 9 89 -10.5t65 -53.5
q5 -22 -20 -97t-44 -116q-15 -31 -32.5 -84.5t-22.5 -68.5q-67 -172 -70 -181q-11 -30 -72 -200.5t-96 -261.5q-4 -10 -16 -42.5t-17 -45.5t-18 -42t-20.5 -42.5t-22.5 -37.5t-27 -36.5t-30.5 -29.5t-37.5 -25.5t-43 -16t-50 -10.5z" />
    <glyph glyph-name="z" unicode="z" horiz-adv-x="679" 
d="M-88 147q-7 38 11 79.5t57 82t71 68t75 60.5q15 11 21 16q152 119 152 129q0 19 -61 -9.5t-128 -67t-73 -38.5q-15 0 -41.5 32t-26.5 52q0 37 72 82.5t149 74t113 33.5q49 9 98 -4q43 -12 61.5 -39.5t18.5 -81.5q-1 -44 -49 -105.5t-115.5 -118.5t-135 -107.5
t-114.5 -82.5l-47 -32q0 -11 148 14t324.5 59.5t201.5 37.5q-13 -52 -94 -105.5t-183 -90.5t-198.5 -61t-146.5 -24q-58 0 -103.5 44t-56.5 103z" />
    <glyph glyph-name="braceleft" unicode="{" horiz-adv-x="1005" 
d="M184 -147q-27 53 -34.5 144.5t12.5 143.5q8 19 4 23q-1 1 -1 4t2 8.5t5 11.5q6 12 6 39t45 160q17 53 17 55q1 2 3 8t3 7q7 14 8 18q0 9 12 41q32 87 24 119q-2 7 -7 6q-32 -7 -53 0.5t-48 34.5q-23 23 -27.5 33t-4.5 36q-2 22 0 26.5t14 10.5l26 13q22 7 101 55.5
t104 73.5q20 20 23 20q6 0 31 39.5t34 63.5q14 37 19 63t6 86q3 117 29 227q6 23 14 37q8 13 8 25q0 11 16 30t27 19q16 0 19 6q6 10 55 -6q46 -15 92.5 -55.5t52.5 -69.5q4 -20 6 -20q17 -17 17 -35q0 -15 -16 -29t-31 -14q-21 0 -33 12q-10 10 -19 10q-4 1 -2 6t-15 22
t-23 17q-10 0 -20 -18.5t-15 -44.5q-4 -25 -6 -27q-3 -3 -9.5 -61.5t-5.5 -73.5q0 -39 -10 -127q0 -47 -38 -111.5t-81 -107.5q-21 -21 -22 -21q-8 0 -11 -6q-4 -4 -16 -12q-14 -9 -14 -10q0 -4 -6 -4t-19 -13l-10 -12l10 -20q20 -40 22.5 -71t-8.5 -81q-18 -93 -24 -98
q-4 -4 -4 -25q0 -6 -17 -59q-18 -52 -18 -58q0 -18 -6 -24q-7 -7 -10 -27q-4 -20 -11 -41q-9 -26 -12 -49q-2 -12 -14 -49q-40 -117 -21 -233q9 -50 23 -50q8 0 12 -8q7 -10 25 -10q51 0 211 78q36 18 41 18q6 0 16 10q11 11 18 11t7 4q0 6 8 6q9 0 26 14q19 15 23 15
q24 14 51 34q12 9 25.5 17.5t24 14.5t11.5 7q2 1 11.5 6t11.5 7q13 13 10 1q-2 -7 -10 -22q-10 -17 -10 -41q0 -49 -113 -131q-61 -45 -63 -45q-6 0 -6 -4t-11 -8q-8 -3 -8 -15q2 -8 1 -9t-5 3q-6 6 -18 -6q-13 -13 -13 -18t-14.5 -11.5t-18.5 -3.5q-8 4 -8 -4q-3 -6 -10 -6
q-5 2 -5 0q0 -1 1 -2q1 -2 -4 -5.5t-13.5 -8t-18 -8t-18 -6t-12.5 -1.5q-6 0 -6 -6q0 -5 -10 -2q-8 4 -8 -2q0 -4 -12 -4q-11 0 -23 -4q-7 -4 -45 0q-59 4 -88 22q-25 16 -61.5 60.5t-49.5 71.5z" />
    <glyph glyph-name="bar" unicode="|" 
d="M291 -102q-16 16 -10 73q0 43 -2 45q-2 4 2 41q13 106 8 121q-4 4 0 33q1 7 2 31.5t2 33.5q4 41 6 41q4 0 4 21q-4 97 8 186q1 6 3.5 37.5t4.5 50.5q17 149 17 244q2 20 5 61.5t5.5 83.5t3.5 50q0 18 -2 18t-2 8q2 4 2 13q-3 4 3 89t11 107q7 35 14 49.5t23 28.5
q5 4 12 9.5t12 9.5t7 6q16 16 57 2q14 -5 23 -15t8 -22q0 -11 4 -15q5 -7 0 -36q-28 -152 -41 -365q0 -30 -32 -350q-23 -232 -34 -314t-36 -200q-12 -58 -21 -115q-8 -46 -12 -57t-14 -11q-36 0 -41 7z" />
    <glyph glyph-name="braceright" unicode="}" horiz-adv-x="731" 
d="M-68 -78q-18 23 -4 24q2 0 6 -1q10 -3 17 4q5 5 69 -8q61 -13 117 -11q50 2 108.5 11.5t96 20.5t37.5 18q0 2 -4 34q-14 117 -2 189q8 49 18 73q12 32 12 35q0 7 11 25q8 13 8 26q2 8 14.5 35.5t20.5 38.5q13 16 6 23q-6 6 -17 6q-13 -4 -28 8t-43 49q-29 39 -35 58
t-10 88q-7 94 4 172q4 28 4 41q0 14 8 22q6 6 6 29q3 49 19 80q10 20 31.5 75.5t21.5 61.5q0 3 2.5 9t10.5 24.5t16 40.5q3 7 6.5 14.5t5.5 12t2 5.5q-6 2 -12 2q-44 0 -66 46q-7 14 -12 14q-8 0 -8 2q0 27 -7 41q-3 4 14.5 21t29.5 22q8 0 8 6q0 4 4 4t20 12q28 20 86 25
q38 3 51 -2t29.5 -20.5t16.5 -24.5q0 -4 10 -19q6 -11 12 -45t6 -59q0 -22 -7.5 -49.5t-16.5 -36.5q-7 -7 -7 -16q0 -1 -6 -25q-2 -6 -18 -39q-27 -54 -27 -61q-8 -25 -12 -31q-10 -17 -10 -25t-6 -20q-9 -14 -13 -29q-11 -42 -26 -88.5t-19 -54.5q-3 -7 -9.5 -91t-6.5 -104
q-3 -11 12 -16q24 -8 109 33q46 22 69 28q11 3 13.5 0.5t1.5 -12.5q0 -10 -4 -22q-2 -6 0.5 -8t17.5 -3q9 0 12 -10q0 -8 4 -12q5 -3 14.5 -30t10.5 -44q2 -22 -3.5 -42t-14.5 -23q-21 -9 -66 -64q-47 -52 -67 -90.5t-44 -110.5q-1 -2 -2 -4.5t-1.5 -3.5t-0.5 -2q3 -3 0 -8
q-5 -12 -14 -66t-8 -73q1 -2 1.5 -7t1 -13t1.5 -13q7 -61 14 -72q4 -8 4 -39q0 -23 -2 -30t-12 -17l-16 -14l-54 2q-55 0 -55 -2q-2 -2 -18 -2q-13 0 -17 -4q-1 -3 -23.5 -7t-31.5 -4q-10 0 -14 -2q-12 -4 -68 -3.5t-94 5.5q-59 9 -60 9q-18 6 -41 17.5t-26 16.5q0 7 -19 15
q-18 7 -18 20q-4 13 -8 13t-4 4z" />
    <glyph glyph-name="asciitilde" unicode="~" horiz-adv-x="1159" 
d="M221 498q-22 20 -37 56.5t-6 45.5q4 4 4 14q0 13 2 13q10 5 43 51l12 12t24 23.5t26 25.5q10 10 26 25t26 25t13 14q11 16 23 16q4 0 8 8q5 8 38 30.5t46 23.5q14 0 18 4q6 6 27 6q12 3 19 1t20 -15q63 -63 70 -177q3 -51 18 -82q4 -8 8 -20q10 -27 36 -44t56 -17
q69 0 140 61q35 30 41 33q18 12 22 16q3 3 8 7l12.5 10l12.5 10q30 25 33 28q15 15 30 25q6 4 37 35q16 16 21 16q4 0 12 8t25 0q18 -7 18 -12q5 -32 0.5 -64t-16.5 -44l-7 -13q3 -3 -18.5 -31t-26.5 -28q-4 0 -4 -8q0 -6 -6 -6q-8 0 -8 -7t-10 -14q-20 -15 -72 -67
q-58 -58 -67 -64l-13 -4q-10 -13 -55 -29q-21 -7 -54 -11t-36 -1q-4 4 -15 4q-40 5 -93 41t-72 72q-7 14 -11 14t-8 12l-22 45q-5 9 -21 41q0 12 -10 54q-10 45 -10 51q-3 2 -9 2q-10 0 -57 -47q-43 -43 -63 -58q-13 -10 -32.5 -36.5t-19.5 -32.5t-13 -28t-19 -28t-29 -6
q-20 0 -35 15z" />
    <glyph glyph-name="exclamdown" unicode="&#xa1;" horiz-adv-x="522" 
d="M-76 -242q-10 31 -10 53.5t5.5 34.5t17 34t18.5 42q26 79 65 144q8 13 21 45.5t18 42.5q10 18 32 76.5t44 84.5q8 9 31.5 72t30.5 88q8 29 24.5 62t22.5 47q7 17 15 49.5t15 48.5q6 14 25 57.5t27 59.5q8 17 33 29t36 1q3 -5 6.5 -0.5t6.5 -1.5q6 -22 -5 -110
q-28 -236 -127 -492q-14 -36 -46 -108.5t-46 -108.5q-8 -21 -22.5 -56.5t-20.5 -51.5q-6 -15 -18.5 -50t-20.5 -53q-7 -16 -18 -46.5t-18 -47.5q-13 -33 -46 -33q-28 0 -56.5 27t-39.5 61zM453 1051q-17 4 -30 42.5t-5 61.5q4 11 14 14q3 1 10 2.5t9 2.5q65 0 90 -29
q20 -25 18 -33q2 -8 8 -18q11 -18 11 -25q0 -6 -12.5 -22.5t-18.5 -16.5q-4 0 -12 -4q-26 -13 -52 4q-18 11 -18 14t-12 7zM125 -446q-3 7 0 10q2 0 2 -8q0 -3 -1 -4z" />
    <glyph glyph-name="cent" unicode="&#xa2;" horiz-adv-x="827" 
d="M197 260q-69 45 -101 135.5t-4 169.5q12 35 50 94.5t57 71.5q16 11 45 51q34 45 107.5 89.5t129.5 50.5q0 2 1 5t1 5q4 20 4 26q-2 3 -1.5 10t3.5 13t3 25q0 9 8 48t12 46q0 8 15 18t24 12q11 0 22 11q7 7 23 4q17 -3 20 2q1 2 2.5 2.5t6 -1.5t10.5 -6l18 -12
q9 -6 16.5 -23.5t6.5 -29.5q0 -13 -33 -92q-21 -48 -39 -100q17 -23 25 -51q8 -26 3.5 -48t-34.5 -86q-34 -79 -51 -101t-39 -15q-18 6 -23.5 24.5t-5.5 73.5q0 57 -8 61q-8 3 -68.5 -38.5t-83.5 -69.5q-34 -39 -67 -86q-73 -103 -42 -142t171 -22q1 5 3.5 13t2.5 10l14 14
q10 10 27 14q18 5 21 10q6 9 24 5q6 -2 12.5 -1.5t6.5 3.5q5 3 8.5 1.5t29.5 -18.5q8 -5 15 -20q73 18 153 45q96 34 105 31q6 -3 -4 -43q-11 -29 -47.5 -61t-73.5 -44q-18 -6 -47 -31q-33 -25 -123 -47q-39 -98 -55 -190q-17 -66 -19 -68q-2 -6 -3 -7t-3 0.5t-6 8.5
q-9 13 -19 13q-9 0 -22 10q-9 6 -19.5 29t-7.5 30q3 6 1 31t-5 27q-3 0 0 3q1 0 2 1q4 4 0 12q-8 13 8 72v2q-113 -9 -163 20z" />
    <glyph glyph-name="sterling" unicode="&#xa3;" horiz-adv-x="772" 
d="M-6 100q-4 10 -3 18.5t7 8.5l6 6q3 6 8 6q1 0 31 13q13 5 21 8t8 2q0 -4 8 0q4 2 16 2l10 20q12 24 15 33q9 27 12 33q18 42 23 78q1 4 10 32l12 72q-41 -7 -57 2q-9 6 -18 17.5t-9 17.5t-4 6q-1 0 -3.5 4.5t-4.5 11t-2 11.5q-2 23 -0.5 29.5t8.5 13.5q12 12 18 12
q10 0 13 8q2 7 22 10q18 3 23 -2q4 -4 4 0q6 0 14 -4q2 0 7 -1t10 -1q0 11 2 17q0 31 6 73q4 28 4 82q1 13 2 28t1.5 23t0.5 9q2 2 6 32q3 28 8 46q10 29 11 38q4 26 14 50q10 20 10 26q0 5 12 13q15 10 17 14q6 12 24 12q40 0 86 -39q15 -14 38.5 -44t23.5 -36q0 -4 4 -8
q3 0 0 -12q-4 -12 -4 -21q0 -7 -19 -20q-10 -7 -17 -7.5t-21 3.5q-24 4 -27 4q-3 -3 -14 -36t-11 -42q-3 -38 -6 -45q-4 -4 -8 -59q-8 -54 -2 -66q4 -8 0 -16t-2 -11q0 -4 -2 -6q-2 -4 -2 -8q27 -3 28 -4q5 -3 58 -6q27 0 31 -4q2 -2 -2 -15q-4 -17 -3 -20q3 -11 -4 -16
q-15 -5 -18 -15q-6 -11 -80 -18q-3 -1 -10 -2t-10 -2l-5 -47q-2 -2 -2 -21q3 -14 -2 -14q-7 0 -4 -6q0 -3 -8 -39q0 -7 -9 -44t-11 -44q0 -14 -17 -56q20 5 25 5q16 0 16 4t4 0q5 -2 41 1.5t39 6.5q4 4 6 0q0 -4 23 -4q72 -5 128 -35t73 -90q5 -16 2 -39q0 -6 -0.5 -12.5
t-1 -10t-0.5 -4.5q-1 -1 -3 -2l-5 -2.5t-5 -3.5q-8 -6 -14 0q-3 6 -10 2q-3 -1 -4.5 1t-4.5 11q-2 6 -2 19q0 15 -42.5 29t-61.5 14h-92q-8 -2 -19 -2q-5 1 -8 0.5t-18 -2.5q-28 -4 -29 -4h-4q0 -4 -14 -4q-15 0 -15 -3q0 -2 -10 -2q-12 0 -18 -2l-11 -2h-8q-4 -4 -14 -4
l-6 -12l-76 -41l-23 20l-43 -8l-10 6q-22 0 -37 21l-4 2q0 1 1 2t1 2q-2 2 -4.5 5.5t-3.5 4.5q-1 0 -4.5 12.5t-3.5 14.5q2 2 -2 18z" />
    <glyph glyph-name="currency" unicode="&#xa4;" horiz-adv-x="966" 
d="M211 782q-28 28 9 44q27 11 59 5q26 -5 38 -10.5t27.5 -23.5t22.5 -25q70 33 170 33q14 -4 20 2q8 0 10 -2q3 -3 6.5 -3.5t4.5 1.5q15 8 43 -12q1 0 3 -1.5t3 -1.5q4 5 16 22.5t19 25.5t17 25.5t17 25.5q12 12 23 12q17 0 28 -21t9 -44q-1 -14 -2.5 -23.5t-5.5 -17.5
t-6 -11.5t-9 -11.5t-10 -12h2q22 0 31 -6q14 -9 18 -9q8 -3 35 -27t33 -34q13 -23 8.5 -80.5t-21.5 -89.5q-29 -56 -49 -74q-10 -8 -22 -20q-5 0 -17 -8q2 -1 5.5 -4.5t5.5 -4.5q8 -3 17 -11.5t15 -15.5t14.5 -17t10.5 -13q8 -10 10 -24.5t-8 -18.5l-2 -1q2 -3 -2 -3
q-53 16 -137 80q-24 -8 -31 -8q-15 -3 -27 -11q-9 -6 -28 -6q-17 0 -23 -6q-9 -4 -16 -2q-23 0 -41 -2l-33 -2q-4 4 -14 0q-11 0 -23 4q-10 4 -12 2q-4 -2 -8 -2l-2 -2q-5 -6 -14.5 -19.5t-18 -24.5t-14.5 -17q-9 -9 -22 -13t-19 4q0 4 -2.5 1t-2.5 1q0 19 21 66q4 4 4 6
q-15 3 -29 10q-4 3 -9.5 3.5t-6.5 -1.5q-3 -3 -8 2q-5 9 -15 9q-21 7 -43 25.5t-34 37.5q-2 4 -4 7t-3.5 7t-2.5 6t-1.5 7.5t-1 8t-1.5 10.5t-1 11.5t-1 15t-1 17.5q-6 39 6 62q7 14 7 28q4 23 10 29q9 9 18.5 23.5t16.5 23.5q11 14 34 33q-2 2 -5 5.5t-5.5 6t-5.5 4.5
q-18 12 -47 45zM268 549q-11 -15 -6 -25q6 -12 11.5 -15.5t29.5 -12.5q22 -9 48.5 -15.5t29.5 -3.5q4 0 10 -4q1 -1 3.5 -1.5t6 -1t5.5 -1.5q9 17 27.5 47t21.5 35q-14 13 -41.5 40.5t-42.5 41.5q-34 -17 -56 -39q-28 -21 -47 -45zM573 563q0 -3 31.5 -30.5t40.5 -34.5
q2 1 6 2t6 2q8 4 21.5 9.5t25 11.5t21.5 14q34 27 29 36q-13 27 -9 29q3 3 3 10q-3 9 6 9q10 2 6 6q-15 13 -37 10q-8 -3 -8 -8t-6 -11q-4 -4 -4 -12q0 -6 -7 -10q-6 0 -10 -4q0 -8 -18 -4q-9 0 -22 12t-13 21q3 3 -2 14q0 4 -2 6q-2 -5 -8 -11.5t-7 -8.5q-13 -19 -43 -58z
M479 659q1 -1 2 -3t2 -3l25 -24q5 6 14.5 18.5t14.5 18.5q-27 0 -31 -4q-2 -2 -4 -2t-2 2q-11 -1 -21 -3zM516 496q-3 -4 -8 -13.5t-8 -13.5q6 1 41 6q-16 12 -25 21z" />
    <glyph glyph-name="yen" unicode="&#xa5;" horiz-adv-x="722" 
d="M209 932q3 35 16 45q13 9 13 14q2 9 24.5 20.5t32.5 8.5q13 -3 16 0q2 2 17 2q18 -5 63 -92l37 -74q30 -58 41 -82q5 -7 14.5 -24t10.5 -19q9 -15 14.5 -15t9.5 15q38 116 141 260q21 30 33.5 37t46.5 10q3 0 7.5 -9t3.5 -13q0 -4 2 -6q4 0 -1 -23t-14.5 -51.5
t-17.5 -42.5q-5 -8 -11.5 -24t-7.5 -17q-2 -3 -3.5 -7.5t-2.5 -7t-2 -3.5q0 -1 -2 -5.5t-5.5 -13t-6.5 -16.5q-3 -7 -7.5 -18t-10 -23.5t-7.5 -16.5q-15 -34 -20 -53q-4 -14 -25 -74q-4 -30 -10 -47q9 0 41 4q14 2 29 2q4 -4 0 -12q-4 -9 2 -18q5 -8 -2 -15q-2 -2 -5 -4.5
t-4 -3.5q-4 0 -8 -8q-8 -12 -69 -31q-7 0 -15 -4l-2 -4q-1 -2 -4.5 -12t-5.5 -17q4 2 15.5 5.5t15.5 5.5q14 2 30 10q4 4 13 4q8 4 20 8l10 4t8 3l6 2l4.5 1.5l3 1t2.5 0.5t2 -1t1.5 -2l1.5 -3q7 -12 2.5 -33.5t-12.5 -23.5q-4 0 -14 -10q-9 -9 -21 -13t-8 -8q2 -3 -6.5 -8
t-30.5 -14l-10 -4q-7 -7 -27 -13q-2 0 -15 -6.5t-14 -7.5q-8 0 -12 -8h-2q0 -2 -3 -14.5t-5 -20.5q-3 -8 -5 -17t-3 -14t-2 -6q0 -4 2 -4q3 -3 -4 -16q-11 -22 -13 -39q-9 -67 -25.5 -128.5t-27.5 -66.5q-6 -3 -25.5 -6t-25.5 -2q-8 3 -8 18q2 23 2 54q2 10 2 53q4 36 4 57
q5 45 12 86q-3 -1 -7 -3.5t-5 -2.5q-4 -4 -8 -4q-5 0 -11 -2q-7 0 -19.5 6t-12.5 12q-5 7 -11 11q-7 4 -12 22q-3 10 -1.5 16.5t11.5 16.5q1 1 43 22q11 6 11 7q4 4 10 4t18 8q5 3 19 8q0 6 2 8q5 25 6 29q-34 -13 -51 -8q-9 3 -19.5 11.5t-11.5 14.5q0 5 -4 5q-1 -1 -4 2.5
t-6 8.5t-4 9q-4 21 -3.5 26t7.5 13q8 12 14 12t10 8q3 10 19 15q14 6 22 2h4q0 4 15 0h4q-4 8 -6 14q-11 35 -24.5 57.5t-20.5 24.5q-4 4 -2 6q4 4 -60 109q-63 106 -63 110q2 2 -17 33q-16 26 -16 33z" />
    <glyph glyph-name="brokenbar" unicode="&#xa6;" horiz-adv-x="636" 
d="M276 1174q0 112 70 112q2 0 4 2h6q4 4 23 4q74 0 86 -32q14 -11 14 -27q0 -8 -2 -10q0 -7 -2 -9q0 -4 -2 -6v-49q0 -35 5 -104.5t5 -104.5q0 -165 -28 -338l-4 -24l-27 2q-65 0 -88 38.5t-23 110.5q0 10 1 32t1 32q0 8 -2 24.5t-2 24.5t-2 26t-2 27v33q0 35 -6 70
q-1 1 -4 12q0 8 -2 12t-2 33q0 51 -14 92q-3 9 -3 17zM317 463q-2 4 -2 14v19q0 28 25 53l8 8h12q3 0 5 2q2 0 5.5 1t4.5 1q3 1 8 3t8 3q6 2 21 2q6 0 13.5 -2t8.5 -2l8 -4q31 -12 31 -47q6 -9 6 -18q0 -22 -6 -25v-18q0 -13 1 -37t1 -35q0 -13 -2 -36t-2 -36
q0 -34 -11 -101.5t-11 -101.5q0 -27 -14.5 -66.5t-37.5 -39.5q-47 7 -60 30t-13 72q0 14 3.5 48.5t2.5 52.5q0 4 -1 11.5t-1 10.5q0 10 6 19q-4 12 -4 20v35q0 8 2 12v6q-2 2 -2 9q-8 31 -8 100v10q-5 5 -5 21v6z" />
    <glyph glyph-name="section" unicode="&#xa7;" horiz-adv-x="927" 
d="M197 39q-31 31 -48 67q-6 13 -2 13q8 0 5 24q-4 25 2 25q4 0 4 8q0 6 4 6q6 0 6 -4q0 -7 10 -4q12 3 35 -20l25 -23h38q59 2 168.5 40t116.5 77q2 15 -24 53q-33 49 -52 68q-21 21 -39 53q-26 0 -53 24q-12 11 -25.5 30.5t-21 34.5t-2.5 15q7 0 4 25q-3 24 2 24q4 0 4 7
q0 6 2 6q-36 113 -8 192q11 29 33 66q20 30 20 39q3 5 16.5 19.5t16.5 15.5q28 33 55.5 48t65.5 15h2q-43 122 -12 205q12 31 33 63q20 30 20 39q0 4 33 37q32 32 58 48t61 16q6 0 18 8q8 5 12 7t19 3.5t43 1.5q44 0 66.5 -9.5t41.5 -45.5q8 -15 11 -15q6 0 29.5 -21
t23.5 -26q0 -7 6 -10q4 -2 16 -18q14 -18 15 -19q4 -4 4 -6q0 -4 4 -12q11 -21 13 -42.5t-1 -53.5q-1 -32 -4 -42.5t-12 -19.5q-12 -12 -17 -12q-6 0 -6 -4q0 -3 -10 -8t-21 -5q-5 0 -20 5q-14 5 -16 4q-5 0 -11 6t0 28q9 38 -0.5 70t-31.5 43q-33 16 -66 25q-6 0 -31 10
q-23 10 -28 8q-20 -5 -46 -28t-44 -46q-24 -29 -33 -53q-15 -30 -16 -48.5t14 -49.5l6 -12q26 -3 47.5 -17.5t28.5 -38.5q8 -12 12 -14q5 0 28 -21.5t23 -25.5q0 -5 6 -8q4 -2 17 -19q13 -18 14 -18q4 -4 4 -8q1 -1 2 -5t2 -6q11 -21 13 -43.5t-1 -52.5v-16q14 -41 14.5 -93
t-14.5 -79q-10 -18 -29 -36t-28 -20q-10 0 -20 -10q-9 -9 -40.5 -20.5t-39.5 -8.5q-5 2 -21 -6q-12 -12 -55 -18q-11 0 -31 -4q35 -47 62 -99q20 -36 21.5 -96.5t-15.5 -89.5q-10 -18 -29 -35.5t-28 -19.5q-11 0 -21 -10q-9 -9 -40.5 -19.5t-39.5 -7.5q-9 0 -20 -8
q-10 -7 -53 -16t-58 -9q-3 -1 -13.5 -3t-13.5 -3h-47q-37 4 -49 10t-30 6q-13 0 -39 23zM477 709q-15 -31 -15.5 -50t13.5 -51q3 -6 8.5 -16t15 -24.5t15.5 -24.5q61 9 148.5 41t95.5 67q-5 5 -2 21q-1 4 -23 37q-13 19 -20.5 29t-15.5 19t-15 17q-22 28 -31 41
q-16 8 -22 12q-17 11 -29 7q-10 -3 -34.5 -20.5t-30.5 -25.5q-6 -9 -25 -28q-10 -10 -33 -51zM322 1473q-5 -3 -5 4q4 8 9 8q5 2 5 -1q0 -2 -1 -3q0 -4 -8 -8z" />
    <glyph glyph-name="dieresis" unicode="&#xa8;" horiz-adv-x="393" 
d="M139 870q0 27 4 33t4 17q-1 1 0 3.5t3 2.5q6 0 6 6q0 19 24 12q14 -3 17 0q3 6 17.5 0.5t29.5 -18.5q29 -26 20 -45q-2 -4 -2 -25q0 -23 -26 -65q-3 -4 -25.5 -5t-28.5 2q-10 7 -14 19q-4 15 -16 27q-13 13 -13 36zM344 838q-15 20 -12 30q0 2 6 35q3 16 10.5 28.5
t13.5 8.5q5 2 7 4q6 7 28 0t27 -16q0 -8 8 -8q6 0 6 -9q1 -57 -3 -75t-19 -23q-10 -3 -10 -6q0 -7 -13 0q-11 5 -31 8q-3 0 -18 23z" />
    <glyph glyph-name="copyright" unicode="&#xa9;" horiz-adv-x="1622" 
d="M174 451q-13 136 59 297q17 38 47.5 89t43.5 76q4 8 22 29t19 25t11 16.5t22 26.5t14 16q8 11 14.5 24.5t13.5 23.5t23 22q3 2 8 4l7.5 3t2.5 3q5 14 16 19t20 5h9q8 18 55.5 37t80.5 25q111 23 151 24q39 1 100 -8q11 -2 33.5 -5t28.5 -4t20.5 -4t23.5 -6t23 -8t33 -12
q90 -35 164.5 -98.5t114.5 -146.5q74 -155 41 -385q-9 -66 -39.5 -135.5t-73.5 -118.5q-26 -31 -52 -48.5t-66.5 -36t-61.5 -30.5q-81 -48 -172 -70q-6 -2 -17 -3t-19 -2t-11 -3q-20 -13 -31 -9t-14 1q-23 -23 -131 -23q-85 0 -155.5 10.5t-138 37.5t-115.5 70t-81.5 112
t-42.5 160zM297 535q-1 -6 -3.5 -27t-3.5 -30.5t-2 -28.5t-0.5 -31t3 -27.5t6.5 -28.5q17 -49 56.5 -81.5t80 -46t94.5 -21.5q91 -13 212 5.5t208 55.5q50 21 83 37t74 41.5t67 52.5t49 66t34 86q17 70 17.5 138t-17 134t-64 121.5t-118.5 89.5q-43 19 -49 19
q-11 0 -11.5 -13.5t3.5 -32.5t-3 -44.5t-30 -44.5q-42 -33 -63 -33q-36 0 -17 72q6 24 -3.5 46t-33.5 31q-33 11 -57 11q-108 0 -274 -129q-15 -11 -24 -24.5t-15 -18.5q-10 -9 -17 -19.5t-16 -17.5q-42 -35 -87.5 -111.5t-70.5 -142.5q-8 -22 -7.5 -29.5t-0.5 -23.5z
M694 434q-90 32 -147 107.5t-35 158.5q23 88 78.5 126.5t150.5 31.5q34 -3 71.5 -33.5t61.5 -64.5q25 -39 5 -80q-8 -16 -27 -16q-17 0 -37.5 10t-32.5 22q-19 19 -51 19q-31 0 -61 -15t-39 -36q-5 -13 -5.5 -23t4 -17t9 -12t12.5 -12t13 -12q8 -9 11 -11.5t5 -2.5t6 -3
q42 -32 188 -32q5 0 46 2.5t72.5 2.5t35.5 -5q12 -19 -11.5 -51.5t-43.5 -47.5q-33 -24 -142 -24q-86 0 -137 18zM1430 111q1 4 5 4.5t5 -2.5q0 -4 -6 -7q-4 0 -4 5z" />
    <glyph glyph-name="guillemotleft" unicode="&#xab;" horiz-adv-x="1517" 
d="M707 680q0 41 20 61q8 8 4 23q-3 16 4 20q6 3 6 11q0 12 51.5 34.5t92.5 30.5q23 5 26 6q4 4 31 8t33 7q6 6 22 6q21 0 41 10q20 9 40.5 10.5t23.5 -4.5q0 -6 10 -6q23 0 23 -43q0 -26 -13 -57.5t-28 -40.5q-17 -12 -21 -17q-3 -5 -29 -14q-27 -9 -30 -12q-4 -4 -56 -8
t-53 -10q0 -2 4 -7q6 -7 37.5 -28.5t40.5 -24.5q12 -4 27 -19q12 -12 20 -12q1 0 6 -4t14.5 -12t16.5 -13q33 -26 37 -26q22 0 143 -121t121 -147q0 -9 12 -29q21 -35 5 -43q-11 -5 -11 -12q0 -8 -14 -17q-22 -14 -31 2q-5 9 -8 6q-8 -4 -43 23q-23 20 -31 20q-6 0 -6 9
q0 6 -8 10q-7 2 -14 16q-6 15 -21 15q-12 0 -12 14q0 8 -1 9t-5 -3q-5 -4 -9 -2t-16 14q-9 9 -45.5 38t-42.5 32q-10 5 -16 2q-4 -1 -41 21q-9 6 -16.5 10.5t-12 6.5t-4.5 1l-16 10q-20 12 -25 12q-8 0 -8 5q0 4 -8 8q-46 24 -106 68t-75 73q-4 8 -6 8q-6 0 -18 27.5
t-12 44.5zM164 600q-19 21 -24 37t1 47q6 27 6 49t36.5 65.5t49.5 43.5q7 0 17 10q16 16 104.5 44t137.5 40q21 5 28 10q8 6 35 10q28 0 39.5 -16.5t13.5 -46.5q2 -32 -8 -55q-22 -49 -35.5 -63.5t-36.5 -14.5q-20 0 -28 -4q-4 -4 -15 -4q-22 0 -84.5 -18.5t-70.5 -26.5
q-3 -3 16 -24t25 -21q2 0 21 -12t49 -30.5t51 -29.5q13 -7 71 -61.5t58 -57.5q0 -4 15.5 -18.5t20.5 -16.5q4 0 11 -10q6 -9 0.5 -23t-13.5 -14q-6 0 -6 -6q0 -11 -18.5 -22t-30.5 -11q-16 0 -16 6q1 3 -1.5 7t-7.5 6l-9 3l5 -5q3 -3 3 -6t-3 -3q-4 0 -39 35q-33 33 -53 39
q-20 7 -24 14q0 2 -5.5 4.5t-11.5 2.5q-33 0 -53 20q-6 6 -18 10q-17 4 -37 21q-7 6 -54 26q-28 12 -63 33t-49 37z" />
    <glyph glyph-name="registered" unicode="&#xae;" horiz-adv-x="1607" 
d="M381 690q-10 35 -10 101t8 104q0 3 1 7t1 5v17q3 96 49 186q19 39 21 47q10 47 120 188.5t162 163.5q6 3 24 16t33 25l15 11q5 -1 6 2q0 3 4 4q6 1 9.5 4.5t11.5 5.5q17 4 49.5 15t48.5 14q41 8 82 8q66 0 107.5 -34.5t86.5 -117.5q3 -7 8.5 -22t11.5 -20t19 -7
q173 -26 258 -162q36 -58 47 -93.5t9 -88.5q0 -75 -11 -168q-1 -8 -5.5 -20.5t-4.5 -18.5q0 -48 -29 -126t-59 -132q-19 -35 -58.5 -85t-52.5 -68q-8 -12 -23 -24.5t-39.5 -29.5t-29.5 -20q-6 -5 -13.5 -10l-10.5 -7q-28 -17 -72.5 -34t-60.5 -19q-21 -3 -75 -14t-83 -14
q-73 -8 -134 -2.5t-128 34.5q-18 7 -61.5 36.5t-57.5 43.5q-85 85 -145 205q-3 5 -5 14t-3.5 15.5t-2.5 7.5q-9 11 -18 57zM500 895q-18 -85 -15 -142.5t33 -138.5q35 -96 122.5 -147t195.5 -51q142 2 242 29.5t182 109.5q68 68 116.5 159.5t63.5 184.5q2 7 6 43t6 41
q3 6 4 49t-2 60q-16 97 -35 112q-6 9 -10 17q-7 18 -36 39t-50 26q-11 3 -21 5.5t-15.5 4t-10 2.5t-7 1.5t-3.5 0.5q-3 0 -5 -3q-5 -5 -14 -9q-16 -8 -26 -8q-9 0 -33 12q-18 12 -49 18q-21 3 -16 -8q2 -4 7 -10q25 -28 28.5 -63.5t-7.5 -71.5q-6 -19 -12.5 -37t-11.5 -29.5
t-15.5 -30t-15 -25.5t-18.5 -30t-19 -30q-23 -37 -24.5 -62.5t13.5 -37t42 -15.5t53.5 -2t56.5 8q5 1 14.5 3t14.5 3q12 2 24 5q14 3 34 -1q6 -1 9 -2q7 -1 11 -12.5t4 -21.5q3 -18 -15 -41.5t-36 -34.5q-19 -12 -41 -19t-33.5 -8.5t-42 -4t-39.5 -3.5q-2 0 -7 -2t-7 -2.5
t-3 2.5q0 4 -2 4.5t-5 -0.5t-7 2q-8 6 -12.5 7.5t-5 0.5t-1.5 -4q-1 -5 -7 0q-9 8 -16 9t-21 10q-47 33 -77 79.5t-24 96.5q0 2 3.5 20t4.5 29t-2 14q-43 -69 -45 -77t-4.5 -10t-3.5 -5q-6 -23 -25.5 -61t-25.5 -54q-17 -44 -25 -75q-11 -37 -22 -43q-14 -4 -18.5 -3
t-10 7.5t-8.5 7.5q-22 9 -47 45q-15 22 4 88l4 21q7 14 14.5 43.5t12.5 35.5t8.5 14t6.5 19t5 15q6 11 16 38t15 35q13 22 39 90q6 17 17 53.5t16 49.5q3 7 16.5 19t19.5 14q18 5 31.5 -0.5t19 -13.5t16 -11.5t22.5 6.5q11 7 22 20t29 23q23 18 14 23.5t-37 7.5h-21
q-75 0 -75 11q0 9 33 24q7 3 16 7l10 5q-1 0 -3 -1q-13 -2 -21 -1q7 5 46.5 17.5t75.5 22.5l35 9q-7 5 2 6q7 0 11 -4q9 -9 9 3q2 23 -24 43q-24 18 -61 18q-56 0 -126.5 -34t-111.5 -75q-2 -2 -9.5 -11t-14 -16t-8.5 -8q-9 -4 -13 -11t-10 -11q-22 -16 -35 -29t-29.5 -36
t-25.5 -34q-16 -19 -22.5 -29.5t-5.5 -12t1 -5t-2 -8.5q-5 -10 -2 -13t-2 -5l-6 -4l1 1q2 4 1 5t-1.5 -1t-1 -5t-1 -6.5t-1.5 -7t-3 -5.5q-73 -96 -96 -221z" />
    <glyph glyph-name="macron" unicode="&#xaf;" horiz-adv-x="428" 
d="M125 840q-5 22 -4 32q2 16 13 29.5t24 13.5l2 3q4 4 6 4q8 -4 8 -7q17 -2 49.5 1.5t48.5 1.5q19 0 27 2q120 0 203 -33h4q2 -2 4 -2q6 -6 6 -17q-13 -51 -27 -51q-8 -4 -14 -4q-8 -2 -33 -2q-15 0 -36 1t-23 1h-14q-4 -2 -11 -2q-4 0 -6 2q-36 -4 -55 -2h-2q-4 -2 -10 -2
q-15 -5 -17 -6q-6 0 -26 -4h-27q-6 0 -10 -2q-2 0 -6 -1t-6 -1q-17 -7 -35 -4q-13 0 -27 18l-2 2v4q0 6 -2 10q0 3 -1 8t-1 7z" />
    <glyph glyph-name="degree" unicode="&#xb0;" horiz-adv-x="581" 
d="M266 608q-23 -48 19 -71q19 -11 32 -9h27q4 -4 12 0q37 0 72 45q13 16 14.5 19.5t-0.5 15.5q-4 15 -10 21q-8 8 -6 10q0 4 -2 6q-3 1 -3.5 0.5t1.5 -2.5v-1q-1 0 -4 3q-8 8 -27 10t-39 -6q-4 -2 -28 -8q-4 -1 -15.5 -4t-15.5 -4q-12 -4 -16.5 -8.5t-10.5 -16.5zM283 438
q-11 10 -23 13q-34 7 -59 60.5t-31 98.5q0 22 12 68q9 33 27 51q29 29 45 29q8 8 25 12q18 3 24 6q4 4 10 4q4 -2 17 -2q12 0 18 -6q8 -3 17 -15t12 -22q3 -8 18 -8q17 -3 17 2q0 3 3 4t8 -0.5t11 -5.5q9 -6 19 -6q9 0 31.5 -26t31.5 -48q7 -18 11 -53t-1 -39q-7 -7 -10 -25
q-10 -31 -40.5 -59.5t-61.5 -28.5q-5 0 -17 -6q-7 -4 -35.5 -5.5t-48.5 1.5q-25 4 -30 6z" />
    <glyph glyph-name="plusminus" unicode="&#xb1;" horiz-adv-x="888" 
d="M156 662q0 17 15 28.5t32 11.5q5 5 6 5q4 4 8 4q7 0 10 -6q27 0 76 5.5t70 6.5v4q2 6 10 10q2 1 3.5 5t2.5 5q-2 0 -2 7q0 4 6 10l4 2v2q0 20 24.5 76t45.5 65q11 10 41 20.5t39 10.5q23 0 42 -12t19 -37q0 -2 -2 -6q-2 -3 -2 -5q-4 -8 -8 -12t-6 -8.5t-4 -9.5t-2 -6
q-8 -16 -16 -35t-17 -43t-14 -37h4q25 0 106.5 -7t91.5 -14q6 -6 6 -10q0 -48 -51 -55q-45 -6 -139 -6q-8 0 -23 -2t-22 -2h-10q-7 -19 -19.5 -57t-19.5 -56q-3 -8 -10 -22.5t-9 -20.5q-7 -22 -10 -43q-2 -17 -14 -25q-2 -2 -4 -2q-2 -2 -2 -4q-2 -2 -2 -4q-6 -6 -13 -6h-6
q-2 1 -3.5 2.5t-2.5 1.5q-35 5 -35 64q0 16 2 24q10 45 10 64q-2 2 -3 4l-1.5 3t-1.5 1v6q0 23 4 35l7 18q-40 -8 -64 -8q-5 0 -35 -6q-42 -6 -47 -6q-9 0 -15.5 2t-14.5 6t-13 6l-6 2v6q0 9 -8 17q-8 11 -8 33zM127 272q0 17 13 31.5t32 15.5l4 5q1 0 3.5 1t4.5 1
q13 0 13 -4q25 0 71 6.5t66 7.5q25 0 37 2q43 6 127 6q71 0 164 -14l4 -2q4 0 6 -2q10 -3 10 -15q0 -17 -14 -45q-6 -15 -69 -20.5t-114 -5.5q-3 0 -7.5 -1t-6.5 -1h-10q-44 -7 -76 -7q-2 0 -4 -2q-2 0 -6 -1t-6 -1q-3 -1 -8.5 -2.5t-9 -2.5t-5.5 -1q-7 0 -20 -3.5t-17 -4.5
q-24 -4 -39 -4q-6 0 -30 -6q-28 -8 -47 -8q-8 0 -14.5 2.5t-14.5 7t-12 6.5l-5 2v4q-1 2 -2 5.5t-2 4.5q-4 6 -10 22.5t-6 22.5z" />
    <glyph glyph-name="twosuperior" unicode="&#xb2;" horiz-adv-x="870" 
d="M188 530q0 31 37 72q9 10 27 28t24 25q11 13 32.5 39.5t33.5 40.5q14 14 37.5 36.5t34.5 33.5q29 29 53.5 68t24.5 69q0 21 -27 21q-53 0 -100 -62q-17 -23 -31 -47q-8 -12 -12 -16l-7 -7q-6 -6 -14 -6q-25 0 -39 15t-14 39t20 59q71 119 176 119q68 0 107 -44.5
t39 -107.5q0 -89 -60 -149q-28 -28 -61 -66q-4 -5 -14 -17t-16 -18.5t-15 -15t-18 -14.5q-10 -7 -35 -35l-4 -4q27 7 30 8q74 31 201 31h14q41 0 41 -35q0 -13 -6 -25q-7 -13 -40.5 -29t-57.5 -22q-84 -25 -105 -33q-107 -39 -157 -39q-35 0 -58 15q-12 8 -26.5 33t-14.5 40
z" />
    <glyph glyph-name="threesuperior" unicode="&#xb3;" horiz-adv-x="794" 
d="M332 438q-31 0 -59.5 21.5t-28.5 54.5q0 35 26 35q9 0 13 -4q2 0 10 -4q6 -2 12 -2q26 0 115 49t104 71h-2q-1 0 -8 3t-12 4q-9 2 -23 2.5t-16 1.5q-195 0 -195 100q0 29 37 59q6 9 23 21h-11q-23 0 -40 21t-17 42q0 33 62 62.5t128 44t99 14.5q39 0 67.5 -17t28.5 -56
q0 -36 -46 -71.5t-95 -58.5q-27 -12 -51 -30q-28 -19 -39 -25h8q5 0 35 -2t47 -4q127 -17 127 -117q0 -95 -178 -176q-48 -21 -56 -24q-50 -15 -65 -15z" />
    <glyph glyph-name="acute" unicode="&#xb4;" horiz-adv-x="397" 
d="M182 807q0 21 49 88q26 36 64 82q18 24 39 24q20 0 37.5 -25t17.5 -46q0 -33 -8 -45q-1 -1 -2 -3t-2 -3q0 -5 -4 -5q-26 -22 -84.5 -54t-83.5 -32q-11 0 -17 6t-6 13z" />
    <glyph glyph-name="paragraph" unicode="&#xb6;" horiz-adv-x="1142" 
d="M221 123q-20 14 -23.5 60.5t7 110t20 106t19.5 81.5q2 9 9.5 31t10.5 37q2 11 14.5 44t14.5 40q1 10 5 21.5t10 25.5t9 22q7 19 25 66.5t31 83.5t22 66q4 14 2.5 19.5t1.5 14.5q5 17 -2 31.5t-18 23.5t-22 23t-13 29q-1 6 1 13.5t7.5 16t10 15t13.5 16.5t13 14.5t14 14
t11 10.5q11 11 30.5 37.5t22.5 36.5l20 63q6 2 10 5.5t9.5 5t21.5 2.5q76 5 121 14q13 3 38 17.5t44 17.5q16 2 38 9t30 9q21 5 32.5 12.5t13 12.5t6 9t13.5 5q11 0 30.5 -7.5t37.5 -8.5q162 -11 213 -25q87 -31 125 -90q19 -28 29 -82t1 -84q-16 -50 -31 -71.5t-61 -67.5
q-4 -4 -24 -16t-21 -11q2 7 -10 0q-14 -8 -20 -14q-11 -11 -22.5 -20t-25 -18.5t-22.5 -16.5q-16 -13 -28 -20t-33.5 -16t-30.5 -13q-14 -6 -15.5 -3t-8.5 1.5t-25 -15.5q-46 -35 -111 -63q-44 -20 -65.5 -48.5t-32.5 -76.5q-6 -30 -23 -78q-6 -17 -7.5 -33.5t-6.5 -28.5
q-8 -18 -14 -40q-21 -58 -21 -62q-3 -18 -8.5 -24.5t-9.5 -20.5q-3 -12 -10 -28t-9 -23q-2 -9 -7 -18.5t-5 -10.5q-3 -8 -11.5 -27.5t-16 -36t-7.5 -18.5t1 -5v-3q-3 -2 -5 -8q-4 -11 -10.5 -36.5t-16.5 -45.5q-10 -25 -10 -39q0 -8 -8 -8q-5 2 -5 -3q0 -2 1 -5
q4 -15 -2 -21t-6 -26q-3 -14 -15 -52q-2 -7 -3.5 -11t-3 -6.5t-2.5 -2l-3 1.5q-4 4 -4 0q0 -5 -6.5 -6.5t-9.5 2.5q0 2 -13 2q-4 0 -7 0.5t-4.5 2.5l-3 4t-2.5 5.5t-1.5 5.5t-1 7t-0.5 6q-4 28 -4.5 57.5t3 60.5t7.5 57.5t11.5 60t13 57t14.5 59t14 55.5q42 176 84 291
q3 7 8.5 21.5t8 22t5 19t0.5 22t-8 21.5q-8 15 -7.5 26t4.5 16t17 16t19 18q19 21 40.5 77t49 147t27.5 92q1 2 2 4.5t1.5 4.5t2 5l2.5 5t2 5q13 22 11.5 34.5t-29.5 0.5q-34 -14 -55 -27.5t-32 -32t-15.5 -33t-12 -45t-14.5 -52.5q-5 -15 -42.5 -112t-54.5 -155
q-6 -20 -24.5 -66.5t-24.5 -74.5q-2 -7 -9 -28.5t-12.5 -39t-6.5 -22.5q0 -16 -18.5 -91t-37.5 -143t-20 -69q-5 -5 -7.5 -17.5t-4.5 -17.5q-3 -8 -6.5 -12t-5.5 -5t-3.5 -4t-1.5 -8q-3 -28 -41 -28q-30 0 -45 12zM864 1008q0 -1 -2.5 -8.5t-4.5 -15t-3.5 -15t0 -12.5
t6.5 -5q3 0 30.5 15t59.5 32.5t37 20.5q40 21 113.5 78.5t85.5 85.5q14 31 -46.5 51t-122.5 20t-79 -6q-4 -4 -20 -57t-33.5 -113.5t-20.5 -70.5z" />
    <glyph glyph-name="periodcentered" unicode="&#xb7;" horiz-adv-x="425" 
d="M197 414q-38 0 -54 32.5t-16 75.5q0 79 51 103q4 2 8 6q2 1 5.5 3t5.5 3q16 8 30 8q11 0 15 -2q24 -2 51 -29l20 -20q23 -23 23 -37q0 -15 -8 -20q0 -2 1 -5.5t1 -5.5q0 -50 -41 -81t-92 -31z" />
    <glyph glyph-name="cedilla" unicode="&#xb8;" horiz-adv-x="331" 
d="M-147 -236q0 7 2 9q2 5 32 16q23 8 66 18l82 27l6 6l-4 4q-1 0 -2.5 0.5l-4.5 1.5t-5 2q-20 5 -23 5q-5 0 -8 -3h-4q-2 -2 -4 -2q-12 -4 -23 -4q-30 0 -44.5 22t-14.5 54q0 17 19.5 53t33.5 52q4 4 4 6l4 8q6 12 8 14q5 5 14 18.5t9 16.5q0 2 4 6l2 2h2l2 2q1 2 2 6.5
t2 6.5q8 20 35 20q6 0 15.5 -4t11.5 -4q3 -1 5.5 -4t4.5 -4t4 -4.5t4 -4.5v-2q0 -56 -16 -81q-4 -4 -4 -9q0 -4 -2 -6q-9 -9 -26 -32.5t-17 -28.5q37 -6 74.5 -47.5t37.5 -77.5q0 -47 -42 -70.5t-93 -23.5q-14 0 -20 -2q-7 0 -11 -2h-10q-5 0 -14 -3h-6q-2 -2 -9 -2
q-4 0 -10.5 1t-9.5 1q-20 5 -21 5h-2q-17 9 -26 22q0 2 -1 4.5t-1 3.5l-2 2q-6 0 -6 4v2z" />
    <glyph glyph-name="onesuperior" unicode="&#xb9;" horiz-adv-x="362" 
d="M209 858q-1 0 -3 -1t-3 -1l-15 -4l-6 16v2q0 30 21 91t45 77q26 0 41.5 -1.5t36 -7.5t31 -21.5t10.5 -40.5q0 -8 -4 -23t-5 -18q-2 -12 -10 -35q-49 -183 -92 -326q-2 -8 -16 -63.5t-25 -83.5q-12 -29 -37 -29q-43 0 -43 66q0 89 35 243q2 7 39 160z" />
    <glyph glyph-name="ordmasculine" unicode="&#xba;" horiz-adv-x="647" 
d="M352 369q-45 0 -76.5 22t-47 59t-21.5 74t-6 80q0 21 28 107q3 8 10 26t9 25q3 12 6 18v25q0 30 33 63l6 11q19 45 64 85t89 40q36 0 69.5 -35t47.5 -74q17 -50 17 -131q0 -67 -28 -156.5t-67 -142.5q-76 -96 -133 -96zM399 760q-86 -112 -86 -209q0 -10 4 -29t9 -24
l2 -2q27 0 63 66t45 104q2 8 10 24q7 14 7 19q1 8 4 24.5t4 24.5q4 32 4 47v14q-2 -2 -10 -2q-12 -5 -26.5 -18t-20.5 -25q-1 -2 -4.5 -7t-4.5 -7z" />
    <glyph glyph-name="guillemotright" unicode="&#xbb;" horiz-adv-x="1255" 
d="M127 350q-5 11 2 33q2 7 8.5 18t7.5 13t4 5.5t3 4.5t51 82q28 44 76.5 96t80.5 68q2 1 9 6t19.5 14t21.5 15q56 41 77 49q19 8 33 18q6 4 29 16q14 7 22 15q7 7 29 18q16 9 45 31t29 25q0 6 -31 10q-23 2 -113 22q-17 4 -59 11q-42 8 -51 2q-10 -7 -10 0q-3 6 -35 6
q-33 0 -33 4q0 1 -23 16q-50 34 -57 101q-2 18 10.5 38.5t32.5 30.5q13 7 27 0q3 -2 6.5 -4t5 -3t2.5 -1q6 0 8 -2q11 0 29 -6q6 -2 22.5 -5t44.5 -8.5t46 -9.5q22 -4 46 -8.5t40.5 -7.5t19.5 -4q86 -17 127 -29q18 -6 29 -6q9 0 24 -6q14 -7 54 -23q28 -10 54 -30.5
t21 -28.5q-4 -4 4 -35q6 -26 7.5 -49.5t-4.5 -26.5q-6 -6 -3 -12q4 -11 0.5 -16t-26.5 -23q-23 -17 -29 -14q-5 3 -18 -0.5t-13 -9.5q0 -2 -26 -15.5t-29 -13.5q-5 0 -8 -6q-4 -9 -33 -23q-59 -30 -74 -45q-13 -13 -51 -35.5t-41 -19.5q-5 0 -10 -8q-5 -11 -14 -11
q-13 0 -21 -8q-10 -10 -16 -10q-4 0 -10 -6q-5 -5 -21 -17q-12 -8 -24 -20q-10 -10 -17 -10q-12 0 -89.5 -61.5t-84.5 -82.5q-3 -9 -8 -6q-5 2 -16 -7t-11 -15q0 -7 -18 -11q-17 -4 -17 -10q0 -4 -10 -4t-10 6q0 4 -13 16.5t-18 12.5t-12 10zM950 604q-2 18 5.5 28.5
t41.5 37.5q88 68 144 143q113 152 -43 178q-60 11 -80 49q-16 28 -21 33q-7 7 -8 31.5t4 44.5q4 23 31.5 33t50.5 -2q9 -5 12 -2q4 1 45.5 -13t57.5 -22q20 -10 50 -40t30 -44q0 -4 8 -12t8 -23q0 -7 10 -27q15 -35 17 -61q6 -56 4 -68q-5 -38 -19.5 -87.5t-21.5 -49.5
q-8 0 -80 -72q-20 -20 -31 -20q-6 0 -14 -8l-8 -6q0 2 -3 -1.5t-10 -10t-14 -9.5q-9 -5 -12 -2q-8 3 -39 -22q-20 -15 -31 -17q-20 -3 -49 10q-35 17 -35 31zM754 688q-4 -3 -9 -4.5t-8.5 -1.5t-3.5 2t15 10q12 6 14 3.5t-8 -9.5zM723 672q-8 0 -2 6l4 4q2 0 2 -4
q0 -6 -4 -6z" />
    <glyph glyph-name="onequarter" unicode="&#xbc;" horiz-adv-x="630" 
d="M201 551q0 36 101 120.5t136 84.5q16 0 29.5 -14.5t13.5 -36.5q0 -21 -10 -34.5t-31 -27.5q-45 -34 -51 -39q-9 -8 -25 -18.5t-22 -16.5l-8 -8h2q22 0 65 6t64 6q5 0 11 1t7 1l6 3q0 1 1 1q3 1 4 5q54 159 110 159h12q14 0 28.5 -25t14.5 -42q0 -11 -10 -31
q-1 -2 -6 -9.5t-6 -12.5q-12 -46 -70 -134t-71 -139l-11 -22q-6 -9 -12 -21q-2 -3 -7.5 -17.5t-10.5 -21.5q-6 -9 -9 -18q-16 -55 -43 -55q-19 0 -26.5 27t-7.5 52q0 26 23 93t40 92q6 9 6 16h-4q-18 0 -53 -5t-53 -5q-45 0 -84.5 22t-42.5 64zM100 571q-2 4 -6.5 12t-7 15
t-2.5 16q0 11 33.5 48.5t52.5 50.5q1 2 2 5.5t2 4.5q13 26 77.5 90t100.5 94q14 12 39 37q32 32 39 37q8 6 23 25q4 6 12 14q18 18 33 39q1 1 9 12t13 17.5t14.5 17t17 17t16 11.5t14.5 5q27 0 43 -19.5t16 -54.5q0 -31 -43 -74l-31 -30q-5 -5 -11 -12t-7 -9
q-3 -3 -15.5 -17.5t-19.5 -19.5v-2l-29 -29q-2 -2 -4 -2q-2 -5 -10 -13t-26 -23.5t-25 -22.5q-15 -14 -39.5 -35.5t-30.5 -27.5q-16 -15 -28 -23q-15 -10 -19 -16q-6 -9 -12 -15q-2 -2 -7.5 -4t-7.5 -4t-9.5 -7t-8.5 -7q-6 -11 -61.5 -55.5t-65.5 -45.5l-29 -4zM264 840
q-39 0 -39 57q0 55 27 170.5t53 189.5l-4 -2q-3 -1 -8 -5t-8 -5l-6 -2l-5 12v2q0 21 10.5 55.5t30 64t39.5 28.5q37 0 64.5 -14.5t27.5 -49.5q0 -13 -69 -229t-84 -250q-9 -22 -29 -22zM170 709h-2l2 -9v9z" />
    <glyph glyph-name="onehalf" unicode="&#xbd;" horiz-adv-x="733" 
d="M281 424q0 29 34 63q9 9 24 25t19 20q20 20 60 66q7 8 36.5 35t45.5 45q46 53 49 94q0 11 -6 14q-3 2 -11 3t-10 2q-55 0 -94 -56q-2 -3 -11.5 -18t-15.5 -21q-1 -1 -6.5 -7.5t-9.5 -10.5t-8 -4q-16 0 -29.5 10t-13.5 35q0 23 18 53q61 98 152 98q48 0 86.5 -33t38.5 -96
q0 -76 -54 -127q-9 -9 -46.5 -54t-63.5 -58q-4 -2 -19.5 -16t-15.5 -17l16 4t19 4q11 2 32 8.5t29 8.5q51 10 123 10q35 0 35 -29q0 -13 -6 -22q-14 -21 -149 -62t-167 -41q-31 0 -45 10q-11 7 -23.5 27.5t-12.5 36.5zM117 662q0 12 28.5 45.5t47.5 48.5q1 2 2 5t2 5
q1 1 3 4t3 4q19 27 47 55q20 20 62 63t65 66q79 79 123 148q14 14 22 27q17 26 39 26q47 0 47 -65q0 -42 -116 -158q-135 -135 -142 -143q-1 -1 -2.5 -3.5t-3.5 -4.5t-4 -3q-5 -2 -15.5 -10t-11.5 -12q-4 0 -4 -4q-7 -10 -75 -70t-76 -61l-25 -4l-4 4q-12 12 -12 37z
M227 915q0 44 33 197q6 28 18.5 77t14.5 56q-8 -8 -12 -8l-9 -2l-4 12v2q0 18 8.5 49.5t25 60t34.5 27.5q80 0 80 -59q0 -16 -56.5 -215.5t-70.5 -228.5q-11 -21 -27 -21q-35 0 -35 53zM199 760h4l-4 2v-2z" />
    <glyph glyph-name="threequarters" unicode="&#xbe;" horiz-adv-x="851" 
d="M334 952q0 29 16 29h10q1 -1 3.5 -2t3.5 -2l8 -4q17 0 76 40t71 60q-16 8 -41 8q-131 0 -131 84q0 27 25 52q3 3 9 8t9 8q-2 0 -4 -2q-21 0 -33 15.5t-12 37.5q0 39 75 69.5t120 30.5q25 0 44.5 -13.5t18.5 -47.5q0 -28 -29 -57q-28 -28 -59 -47q-4 -3 -26.5 -17
t-30.5 -22q-2 -2 -6 -5t-5 -4h7q3 0 23.5 -2t31.5 -4q86 -18 86 -96q0 -60 -77 -119t-124 -59q-21 0 -40 16t-19 45zM621 594q-36 0 -63.5 22t-27.5 56q0 27 54 88q11 12 36.5 37t32.5 34q17 21 43 21q14 0 22.5 -14.5t8.5 -30.5q0 -6 -2 -13t-6.5 -14t-7.5 -12t-10.5 -13.5
t-10 -11.5t-11.5 -11l-9 -9q-3 -3 -17 -14.5t-18 -18.5q-1 -2 -3.5 -3.5t-2.5 -2.5q75 0 98 12q1 1 2 3t2 3q0 5 6 17q10 23 23 55q18 45 26 57q4 7 13 11q25 0 38 -17t13 -43q0 -20 -16 -47q-54 -90 -95 -237q-5 -16 -16 -39q-2 -4 -14 -33q-2 -5 -4.5 -18t-4.5 -19
q-8 -29 -30 -29q-25 0 -25 70q0 22 15.5 80.5t27.5 81.5l6 12q-12 0 -36 -5t-37 -5zM371 645q-11 18 -11 35q0 4 1 8l1 4q4 12 15 23q19 19 43 59q2 0 4 2q0 28 149 203q68 82 101 149l3 4q3 4 5 5q5 3 10 18q3 10 13.5 19.5t21.5 9.5q41 0 41 -58q0 -33 -87 -150.5
t-134 -164.5l-10 -10q-13 -13 -15 -19q-3 -10 -59.5 -71t-65.5 -64l-22 -8zM428 778h4l-4 4v-4z" />
    <glyph glyph-name="questiondown" unicode="&#xbf;" horiz-adv-x="710" 
d="M-63 -518q-22 33 -30.5 70.5t-6.5 72t15.5 76.5t28.5 74t41.5 74.5t44.5 68.5t46.5 66t40.5 57t27.5 47.5t25.5 44.5q39 55 60.5 88t49.5 85.5t42 99.5q9 30 10.5 50t0 42.5t-0.5 42.5q3 39 43 30q60 -13 82 -55q22 -41 25 -87t-6 -85t-32 -87t-44 -81t-51.5 -80.5
t-45.5 -72.5q-3 -6 -6.5 -15.5t-6 -16t-5.5 -7.5q-20 -6 -94.5 -126t-108.5 -184q-15 -28 -21.5 -51.5t-4 -40t23 -15.5t57.5 23q47 28 78.5 63.5t67.5 90.5q12 18 19 35.5t9.5 27.5t7.5 39q8 43 41 43q27 0 60 -26q35 -35 35 -101q0 -43 -38 -107.5t-75 -100.5
q-10 -9 -37.5 -38.5t-48.5 -47.5t-41 -27q-71 -33 -133 -33q-93 0 -145 74zM342 872q-16 37 12 62q12 11 29 14.5t29 -2.5q41 -20 63 -49q15 -21 16.5 -53.5t-10.5 -36.5q-6 0 -14 -8q-3 -3 -31 -8q-11 -2 -15.5 -2.5t-7.5 1.5t-5 7q-3 10 -15 10q-8 0 -29 19.5t-18 23.5
q3 3 -4 22z" />
    <glyph glyph-name="Agrave" unicode="&#xc0;" horiz-adv-x="815" 
d="M-154 -162q-13 15 -13 43t9.5 58.5t20.5 56t22 45.5q15 27 31 59q7 13 -2.5 26.5t-26.5 30t-22 31.5q-5 14 -4.5 24.5t3.5 17t11.5 12t15.5 8.5t19.5 8t19.5 8q69 33 98.5 61.5t61.5 94.5q12 24 43.5 82.5t46.5 91.5q20 45 46 97t46 88t53 95.5t50 90.5q13 23 96 157
q28 45 131 178t125 138q30 8 60.5 -20.5t43.5 -61.5q2 -6 7 -29q25 -123 -60 -489q-13 -60 -55 -222q-2 -7 -11 -32t-10 -31q-2 -8 9 -13.5t22 -13.5t10 -22q0 -7 -2 -13.5t-6.5 -12t-7.5 -9t-10 -8.5t-10.5 -7t-12 -6.5t-10.5 -5.5q-20 -12 -39.5 -72.5t-26.5 -103.5
q-6 -32 -40.5 -149.5t-32.5 -169.5q3 -12 -5.5 -18.5t-27.5 -8.5q-59 -6 -88 33q-12 15 -12 37q4 16 4 49l2 8q1 4 2 12t2 11q98 301 92 313q-15 -2 -53 -19.5t-53 -21.5q-41 -11 -177 -84q-20 -11 -28.5 -21t-17.5 -28t-17 -29q-50 -75 -76 -135q-14 -33 -71 -133t-68 -129
q-5 -15 -48 10t-59 43zM336 528q-23 -47 -22 -53t10 -6q14 0 38 8q14 4 50 17.5t53 17.5q21 6 45 10.5t30.5 5.5t16.5 10.5t14 23t13 44.5q3 10 15 52.5t16 57.5t15 54t15.5 58.5t13 54.5t13.5 58.5t11 54.5t10 58t7 54q6 56 2 60q-6 6 -34 -31q-94 -122 -205 -346
q-35 -69 -127 -263zM653 1628q0 18 17.5 46t42.5 28q24 0 41 -29q2 -3 13.5 -22t19.5 -32t20 -34.5t19.5 -36.5t13.5 -30t6 -23q0 -18 -21 -18q-47 0 -163 102q-5 5 -5 10q-4 8 -4 39z" />
    <glyph glyph-name="Aacute" unicode="&#xc1;" horiz-adv-x="815" 
d="M-154 -162q-13 15 -13 43t9.5 58.5t20.5 56t22 45.5q15 27 31 59q7 13 -2.5 26.5t-26.5 30t-22 31.5q-5 14 -4.5 24.5t3.5 17t11.5 12t15.5 8.5t19.5 8t19.5 8q69 33 98.5 61.5t61.5 94.5q12 24 43.5 82.5t46.5 91.5q20 45 46 97t46 88t53 95.5t50 90.5q13 23 96 157
q28 45 131 178t125 138q30 8 60.5 -20.5t43.5 -61.5q2 -6 7 -29q25 -123 -60 -489q-13 -60 -55 -222q-2 -7 -11 -32t-10 -31q-2 -8 9 -13.5t22 -13.5t10 -22q0 -7 -2 -13.5t-6.5 -12t-7.5 -9t-10 -8.5t-10.5 -7t-12 -6.5t-10.5 -5.5q-20 -12 -39.5 -72.5t-26.5 -103.5
q-6 -32 -40.5 -149.5t-32.5 -169.5q3 -12 -5.5 -18.5t-27.5 -8.5q-59 -6 -88 33q-12 15 -12 37q4 16 4 49l2 8q1 4 2 12t2 11q98 301 92 313q-15 -2 -53 -19.5t-53 -21.5q-41 -11 -177 -84q-20 -11 -28.5 -21t-17.5 -28t-17 -29q-50 -75 -76 -135q-14 -33 -71 -133t-68 -129
q-5 -15 -48 10t-59 43zM336 528q-23 -47 -22 -53t10 -6q14 0 38 8q14 4 50 17.5t53 17.5q21 6 45 10.5t30.5 5.5t16.5 10.5t14 23t13 44.5q3 10 15 52.5t16 57.5t15 54t15.5 58.5t13 54.5t13.5 58.5t11 54.5t10 58t7 54q6 56 2 60q-6 6 -34 -31q-94 -122 -205 -346
q-35 -69 -127 -263zM647 1479q0 28 113 170q16 22 39 22q21 0 38 -23.5t17 -45.5q0 -17 -4 -29t-4 -17q-3 -6 -4 -6q0 -2 -4 -6q-67 -42 -80 -49q-60 -35 -88 -35q-23 0 -23 19z" />
    <glyph glyph-name="Acircumflex" unicode="&#xc2;" horiz-adv-x="815" 
d="M-154 -162q-13 15 -13 43t9.5 58.5t20.5 56t22 45.5q15 27 31 59q7 13 -2.5 26.5t-26.5 30t-22 31.5q-5 14 -4.5 24.5t3.5 17t11.5 12t15.5 8.5t19.5 8t19.5 8q69 33 98.5 61.5t61.5 94.5q12 24 43.5 82.5t46.5 91.5q20 45 46 97t46 88t53 95.5t50 90.5q13 23 96 157
q28 45 131 178t125 138q30 8 60.5 -20.5t43.5 -61.5q2 -6 7 -29q25 -123 -60 -489q-13 -60 -55 -222q-2 -7 -11 -32t-10 -31q-2 -8 9 -13.5t22 -13.5t10 -22q0 -7 -2 -13.5t-6.5 -12t-7.5 -9t-10 -8.5t-10.5 -7t-12 -6.5t-10.5 -5.5q-20 -12 -39.5 -72.5t-26.5 -103.5
q-6 -32 -40.5 -149.5t-32.5 -169.5q3 -12 -5.5 -18.5t-27.5 -8.5q-59 -6 -88 33q-12 15 -12 37q4 16 4 49l2 8q1 4 2 12t2 11q98 301 92 313q-15 -2 -53 -19.5t-53 -21.5q-41 -11 -177 -84q-20 -11 -28.5 -21t-17.5 -28t-17 -29q-50 -75 -76 -135q-14 -33 -71 -133t-68 -129
q-5 -15 -48 10t-59 43zM336 528q-23 -47 -22 -53t10 -6q14 0 38 8q14 4 50 17.5t53 17.5q21 6 45 10.5t30.5 5.5t16.5 10.5t14 23t13 44.5q3 10 15 52.5t16 57.5t15 54t15.5 58.5t13 54.5t13.5 58.5t11 54.5t10 58t7 54q6 56 2 60q-6 6 -34 -31q-94 -122 -205 -346
q-35 -69 -127 -263zM645 1561q0 8 8 16l4 4q16 40 97 131q16 19 51 19q46 0 72 -51t26 -101q0 -19 9.5 -57t9.5 -56q0 -12 -11 -20q-16 -12 -30 -10q-2 -2 -13 -2q-9 0 -18 6q0 1 -2 3t-2 3q-28 44 -35 78l-18 73q-9 -15 -15 -30q-19 -51 -59 -51q-71 0 -74 45z" />
    <glyph glyph-name="Atilde" unicode="&#xc3;" horiz-adv-x="815" 
d="M-154 -162q-13 15 -13 43t9.5 58.5t20.5 56t22 45.5q15 27 31 59q7 13 -2.5 26.5t-26.5 30t-22 31.5q-5 14 -4.5 24.5t3.5 17t11.5 12t15.5 8.5t19.5 8t19.5 8q69 33 98.5 61.5t61.5 94.5q12 24 43.5 82.5t46.5 91.5q20 45 46 97t46 88t53 95.5t50 90.5q13 23 96 157
q28 45 131 178t125 138q30 8 60.5 -20.5t43.5 -61.5q2 -6 7 -29q25 -123 -60 -489q-13 -60 -55 -222q-2 -7 -11 -32t-10 -31q-2 -8 9 -13.5t22 -13.5t10 -22q0 -7 -2 -13.5t-6.5 -12t-7.5 -9t-10 -8.5t-10.5 -7t-12 -6.5t-10.5 -5.5q-20 -12 -39.5 -72.5t-26.5 -103.5
q-6 -32 -40.5 -149.5t-32.5 -169.5q3 -12 -5.5 -18.5t-27.5 -8.5q-59 -6 -88 33q-12 15 -12 37q4 16 4 49l2 8q1 4 2 12t2 11q98 301 92 313q-15 -2 -53 -19.5t-53 -21.5q-41 -11 -177 -84q-20 -11 -28.5 -21t-17.5 -28t-17 -29q-50 -75 -76 -135q-14 -33 -71 -133t-68 -129
q-5 -15 -48 10t-59 43zM336 528q-23 -47 -22 -53t10 -6q14 0 38 8q14 4 50 17.5t53 17.5q21 6 45 10.5t30.5 5.5t16.5 10.5t14 23t13 44.5q3 10 15 52.5t16 57.5t15 54t15.5 58.5t13 54.5t13.5 58.5t11 54.5t10 58t7 54q6 56 2 60q-6 6 -34 -31q-94 -122 -205 -346
q-35 -69 -127 -263zM664 1454q-20 0 -40 22t-20 40q0 9 8 44t13 46q0 10 18 28q13 13 25 21l10 8l10 -6q18 -12 29 -12q16 -2 26 -17q7 -10 29.5 -32.5t32.5 -28.5q4 -2 8 -6q16 0 29 8q5 3 26 24q3 3 10 10.5t13.5 14t11.5 10.5q2 0 6 4l5 1q4 1 8 1q12 0 16 -6q4 -4 4 -6
q0 -1 3.5 -6t4.5 -8q6 -24 6 -25q0 -12 -2 -20q-3 -9 -6 -21q0 -13 -22 -35l-2 -2q-7 -16 -27 -28l-12 -7q-13 -18 -51 -18q-56 0 -119 76l-4 4q-2 -2 -2 -8q-7 -18 -7 -33q0 -17 -10.5 -27t-27.5 -10zM942 1538l4 4z" />
    <glyph glyph-name="Adieresis" unicode="&#xc4;" horiz-adv-x="815" 
d="M-154 -162q-13 15 -13 43t9.5 58.5t20.5 56t22 45.5q15 27 31 59q7 13 -2.5 26.5t-26.5 30t-22 31.5q-5 14 -4.5 24.5t3.5 17t11.5 12t15.5 8.5t19.5 8t19.5 8q69 33 98.5 61.5t61.5 94.5q12 24 43.5 82.5t46.5 91.5q20 45 46 97t46 88t53 95.5t50 90.5q13 23 96 157
q28 45 131 178t125 138q30 8 60.5 -20.5t43.5 -61.5q2 -6 7 -29q25 -123 -60 -489q-13 -60 -55 -222q-2 -7 -11 -32t-10 -31q-2 -8 9 -13.5t22 -13.5t10 -22q0 -7 -2 -13.5t-6.5 -12t-7.5 -9t-10 -8.5t-10.5 -7t-12 -6.5t-10.5 -5.5q-20 -12 -39.5 -72.5t-26.5 -103.5
q-6 -32 -40.5 -149.5t-32.5 -169.5q3 -12 -5.5 -18.5t-27.5 -8.5q-59 -6 -88 33q-12 15 -12 37q4 16 4 49l2 8q1 4 2 12t2 11q98 301 92 313q-15 -2 -53 -19.5t-53 -21.5q-41 -11 -177 -84q-20 -11 -28.5 -21t-17.5 -28t-17 -29q-50 -75 -76 -135q-14 -33 -71 -133t-68 -129
q-5 -15 -48 10t-59 43zM336 528q-23 -47 -22 -53t10 -6q14 0 38 8q14 4 50 17.5t53 17.5q21 6 45 10.5t30.5 5.5t16.5 10.5t14 23t13 44.5q3 10 15 52.5t16 57.5t15 54t15.5 58.5t13 54.5t13.5 58.5t11 54.5t10 58t7 54q6 56 2 60q-6 6 -34 -31q-94 -122 -205 -346
q-35 -69 -127 -263zM610 1540q-11 11 -14 37q0 27 6 33q7 7 2 16q0 6 4 6t4 6q0 20 25 13q16 -4 16 0q4 6 19 0t28 -19q30 -30 21 -45q0 -63 -27 -90q-3 -3 -26 -4t-29 2q-10 7 -14 18q-4 16 -15 27zM801 1544q-16 21 -13 31q4 14 7 35q2 10 6.5 20t9.5 15.5t8 3.5q1 -1 8 2
q9 5 29.5 -1t24.5 -16q4 -8 8 -8q6 0 6 -8q1 -55 -3 -72.5t-20 -25.5q-10 -5 -10 -7q0 -7 -10 0q-9 6 -33 9z" />
    <glyph glyph-name="Aring" unicode="&#xc5;" horiz-adv-x="815" 
d="M-154 -162q-13 15 -13 43t9.5 58.5t20.5 56t22 45.5q15 27 31 59q7 13 -2.5 26.5t-26.5 30t-22 31.5q-5 14 -4.5 24.5t3.5 17t11.5 12t15.5 8.5t19.5 8t19.5 8q69 33 98.5 61.5t61.5 94.5q12 24 43.5 82.5t46.5 91.5q20 45 46 97t46 88t53 95.5t50 90.5q13 23 96 157
q28 45 131 178t125 138q30 8 60.5 -20.5t43.5 -61.5q2 -6 7 -29q25 -123 -60 -489q-13 -60 -55 -222q-2 -7 -11 -32t-10 -31q-2 -8 9 -13.5t22 -13.5t10 -22q0 -7 -2 -13.5t-6.5 -12t-7.5 -9t-10 -8.5t-10.5 -7t-12 -6.5t-10.5 -5.5q-20 -12 -39.5 -72.5t-26.5 -103.5
q-6 -32 -40.5 -149.5t-32.5 -169.5q3 -12 -5.5 -18.5t-27.5 -8.5q-59 -6 -88 33q-12 15 -12 37q4 16 4 49l2 8q1 4 2 12t2 11q98 301 92 313q-15 -2 -53 -19.5t-53 -21.5q-41 -11 -177 -84q-20 -11 -28.5 -21t-17.5 -28t-17 -29q-50 -75 -76 -135q-14 -33 -71 -133t-68 -129
q-5 -15 -48 10t-59 43zM336 528q-23 -47 -22 -53t10 -6q14 0 38 8q14 4 50 17.5t53 17.5q21 6 45 10.5t30.5 5.5t16.5 10.5t14 23t13 44.5q3 10 15 52.5t16 57.5t15 54t15.5 58.5t13 54.5t13.5 58.5t11 54.5t10 58t7 54q6 56 2 60q-6 6 -34 -31q-94 -122 -205 -346
q-35 -69 -127 -263zM625 1579q0 18 7 43.5t19 36.5q12 12 37.5 24.5t40.5 12.5q36 0 51 -25q0 -1 1 -3t1 -3h15q14 0 20 -6q2 0 4 -2q9 0 13 -4q4 -2 8 -6q5 -3 14 -17q4 -5 10 -14.5t8 -11.5q5 -5 7 -14.5t1.5 -21.5t0.5 -16q0 -28 -29 -59.5t-59 -34.5q-2 0 -4 -2
q-1 0 -4 -1t-5 -1q-16 -4 -32 -4q-56 0 -90.5 36.5t-34.5 92.5zM713 1556q0 -7 6 -16q4 -4 8 -6h27q10 0 26.5 13.5t16.5 21.5q0 4 -4 12q-1 1 -3.5 4t-3.5 4q-8 4 -10 4q-8 0 -14 -2q-9 -3 -21 -6q-17 -5 -22.5 -10.5t-5.5 -18.5zM776 1653q0 4 4 8h-4v-8z" />
    <glyph glyph-name="AE" unicode="&#xc6;" horiz-adv-x="1521" 
d="M-76 -162q-12 21 -13 44.5t10 57t21.5 57t22.5 44.5q6 10 16 32t13 27q9 17 -17.5 44.5t-31.5 43.5q-7 13 -4 24.5t4 17t10.5 12t15.5 9l18 7.5t19 8q70 35 99.5 63t60.5 93q12 24 43.5 82.5t46.5 91.5q20 45 46 97t46 88t53 95.5t50 90.5q13 23 96 157
q27 44 130.5 176.5t125.5 139.5q30 9 60.5 -20t43.5 -62q0 -1 6 -29q8 -43 -4 -164q2 3 10 12t11 13q4 5 19 28t31 45.5t33.5 45.5t32 36.5t21.5 10.5t17.5 -2t21.5 -2q14 -4 22 -15t10.5 -18.5t16 -12.5t39.5 3q208 77 342 77q82 0 112.5 -27t23.5 -54t-17 -27
q-59 0 -263 -64t-257 -98q-73 -46 -102.5 -74.5t-71.5 -99.5l-7 -10q-71 -118 -94 -209q12 0 33 6q7 2 69 23t119 39.5t125.5 34.5t106.5 16q33 0 43 -13q12 -20 5 -38.5t-29.5 -36.5t-44.5 -29.5t-40 -17.5q-325 -117 -429 -181q-52 -32 -60 -55q-37 -108 -33 -285
q3 -145 152 -145q74 0 177 35t201 87t157 87t95 59q11 7 11 -2q-42 -91 -132 -173.5t-188.5 -134.5t-192.5 -80t-151 -21q-59 7 -117 52.5t-98 110.5q-21 -70 -18 -112q3 -12 -5.5 -18.5t-27.5 -8.5q-59 -6 -88 33q-13 16 -13 37q10 32 5 41v8l2 8q4 16 4 23q1 19 26 94.5
t47 143.5t19 75q-15 -2 -53.5 -19.5t-53.5 -21.5q-28 -7 -88 -36t-88 -48q-20 -12 -28.5 -22t-18 -27.5t-16.5 -28.5q-50 -75 -76 -135q-14 -31 -70 -131t-67 -131q-5 -15 -49 10t-60 43zM414 528q-24 -49 -22 -55q2 -4 9 -4q15 0 39 8q14 4 50 17.5t53 17.5q21 5 44 8.5
t31 5.5t16 9t13 22q82 230 131 551q9 58 1 60q-8 3 -34 -31q-91 -119 -204 -346q-21 -43 -63 -131.5t-64 -131.5z" />
    <glyph glyph-name="Ccedilla" unicode="&#xc7;" horiz-adv-x="1050" 
d="M676 1247q-49 -24 -114 -97.5t-128 -175t-122.5 -219.5t-99.5 -235t-58 -216.5t2 -169.5t80 -89q52 -16 124 -16q141 0 297 58t265 144q75 58 159 107q20 11 -15 -43q-49 -75 -87 -115q-2 -3 -4 -4q-112 -105 -250 -179t-272 -97q-9 -15 -21 -27q-22 -22 -22 -37
q38 -8 75 -47.5t37 -77.5q0 -28 -17 -48t-44 -29.5t-53 -14t-52 -4.5h-10q-8 0 -14 -2q-4 0 -6 -2q-34 0 -50 6h-2q-16 8 -26 23q-2 2 -2 8h-2l-6 4v4q0 4 2 6q3 10 98 37q67 20 82 27l6 4q0 3 -6 5.5t-10 2.5q-3 1 -8.5 2.5t-9 2.5t-5.5 1q-12 0 -12 -4h-4q-12 -4 -23 -4
q-59 0 -59 76q0 20 37 82q-150 10 -245.5 108t-105.5 293q-8 145 81 372.5t233.5 433t281.5 281.5q32 19 93 35.5t96 16.5q61 0 139 -66q19 -16 40.5 -65t23.5 -74q2 -29 -9 -123q-6 -53 -13 -70.5t-21 -19.5l-58 -6q-13 7 -16.5 32t-3.5 103v11v13t-1 13.5t-2.5 15t-4 14.5
t-7 15.5t-11 13t-14.5 12.5t-19.5 10.5t-24.5 8.5q-39 -2 -82 -25z" />
    <glyph glyph-name="Egrave" unicode="&#xc8;" horiz-adv-x="925" 
d="M-4 178q-22 167 80 451q6 16 22.5 52.5t20.5 51.5q6 24 16.5 51.5t17.5 42.5t24.5 51.5t21.5 45.5q14 28 42.5 84t41.5 84q8 18 12.5 31t5 17t3.5 10.5t10 14.5t22 25q7 7 37.5 53.5t59 81.5t40.5 31q7 -3 17.5 -2t21.5 -2q14 -4 22 -15t10.5 -18.5t16 -12.5t39.5 3
q72 26 116 39.5t107 25.5t121 12q51 0 82.5 -11t40.5 -27t9 -32t-5.5 -27t-9.5 -11q-58 0 -262.5 -64t-257.5 -98q-73 -46 -102.5 -74.5t-71.5 -99.5l-7 -10q-71 -118 -94 -209q12 0 33 6q7 2 68.5 23t118.5 39.5t126 34.5t107 16q33 0 43 -13q12 -20 5 -38.5t-29.5 -36.5
t-44.5 -29.5t-40 -17.5q-325 -117 -429 -181q-52 -32 -60 -55q-37 -108 -33 -285q3 -145 154 -145q74 0 176.5 35t200.5 87t156 86.5t95 59.5q11 7 11 -2q-42 -91 -132 -173.5t-188.5 -134.5t-192.5 -80t-151 -21q-87 10 -166.5 98.5t-97.5 181.5zM532 1548q0 6 -1 15t-1 10
q0 17 18 44.5t42 27.5q25 0 41 -27q1 -1 21 -33.5t32 -54.5q39 -72 39 -90q0 -21 -21 -21q-26 0 -80 40t-87 73q0 3 -1.5 8t-1.5 8z" />
    <glyph glyph-name="Eacute" unicode="&#xc9;" horiz-adv-x="925" 
d="M-4 178q-22 167 80 451q6 16 22.5 52.5t20.5 51.5q6 24 16.5 51.5t17.5 42.5t24.5 51.5t21.5 45.5q14 28 42.5 84t41.5 84q8 18 12.5 31t5 17t3.5 10.5t10 14.5t22 25q7 7 37.5 53.5t59 81.5t40.5 31q7 -3 17.5 -2t21.5 -2q14 -4 22 -15t10.5 -18.5t16 -12.5t39.5 3
q72 26 116 39.5t107 25.5t121 12q51 0 82.5 -11t40.5 -27t9 -32t-5.5 -27t-9.5 -11q-58 0 -262.5 -64t-257.5 -98q-73 -46 -102.5 -74.5t-71.5 -99.5l-7 -10q-71 -118 -94 -209q12 0 33 6q7 2 68.5 23t118.5 39.5t126 34.5t107 16q33 0 43 -13q12 -20 5 -38.5t-29.5 -36.5
t-44.5 -29.5t-40 -17.5q-325 -117 -429 -181q-52 -32 -60 -55q-37 -108 -33 -285q3 -145 154 -145q74 0 176.5 35t200.5 87t156 86.5t95 59.5q11 7 11 -2q-42 -91 -132 -173.5t-188.5 -134.5t-192.5 -80t-151 -21q-87 10 -166.5 98.5t-97.5 181.5zM643 1442q0 17 49 86
q14 20 37.5 50t26.5 34q16 22 41 22q20 0 36.5 -25t16.5 -46q0 -29 -8 -45q0 -1 -1 -3.5t-1 -3.5l-4 -4q-67 -42 -80 -49q-64 -35 -90 -35q-23 0 -23 19z" />
    <glyph glyph-name="Ecircumflex" unicode="&#xca;" horiz-adv-x="925" 
d="M-4 178q-22 167 80 451q6 16 22.5 52.5t20.5 51.5q6 24 16.5 51.5t17.5 42.5t24.5 51.5t21.5 45.5q14 28 42.5 84t41.5 84q8 18 12.5 31t5 17t3.5 10.5t10 14.5t22 25q7 7 37.5 53.5t59 81.5t40.5 31q7 -3 17.5 -2t21.5 -2q14 -4 22 -15t10.5 -18.5t16 -12.5t39.5 3
q72 26 116 39.5t107 25.5t121 12q51 0 82.5 -11t40.5 -27t9 -32t-5.5 -27t-9.5 -11q-58 0 -262.5 -64t-257.5 -98q-73 -46 -102.5 -74.5t-71.5 -99.5l-7 -10q-71 -118 -94 -209q12 0 33 6q7 2 68.5 23t118.5 39.5t126 34.5t107 16q33 0 43 -13q12 -20 5 -38.5t-29.5 -36.5
t-44.5 -29.5t-40 -17.5q-325 -117 -429 -181q-52 -32 -60 -55q-37 -108 -33 -285q3 -145 154 -145q74 0 176.5 35t200.5 87t156 86.5t95 59.5q11 7 11 -2q-42 -91 -132 -173.5t-188.5 -134.5t-192.5 -80t-151 -21q-87 10 -166.5 98.5t-97.5 181.5zM569 1556q0 8 9 17
q17 41 98 135q14 16 53 16q31 0 54 -27.5t32.5 -60t9.5 -61.5q0 -19 9.5 -57t9.5 -56q0 -11 -8 -22q-9 -11 -33 -8q-5 -5 -12 -5q-11 0 -17 9q-1 0 -3 2t-3 2q-22 42 -33 80q-4 12 -10 35.5t-10 35.5q-9 -18 -13 -28q-19 -52 -59 -52q-74 0 -74 45z" />
    <glyph glyph-name="Edieresis" unicode="&#xcb;" horiz-adv-x="925" 
d="M-4 178q-22 167 80 451q6 16 22.5 52.5t20.5 51.5q6 24 16.5 51.5t17.5 42.5t24.5 51.5t21.5 45.5q14 28 42.5 84t41.5 84q8 18 12.5 31t5 17t3.5 10.5t10 14.5t22 25q7 7 37.5 53.5t59 81.5t40.5 31q7 -3 17.5 -2t21.5 -2q14 -4 22 -15t10.5 -18.5t16 -12.5t39.5 3
q72 26 116 39.5t107 25.5t121 12q51 0 82.5 -11t40.5 -27t9 -32t-5.5 -27t-9.5 -11q-58 0 -262.5 -64t-257.5 -98q-73 -46 -102.5 -74.5t-71.5 -99.5l-7 -10q-71 -118 -94 -209q12 0 33 6q7 2 68.5 23t118.5 39.5t126 34.5t107 16q33 0 43 -13q12 -20 5 -38.5t-29.5 -36.5
t-44.5 -29.5t-40 -17.5q-325 -117 -429 -181q-52 -32 -60 -55q-37 -108 -33 -285q3 -145 154 -145q74 0 176.5 35t200.5 87t156 86.5t95 59.5q11 7 11 -2q-42 -91 -132 -173.5t-188.5 -134.5t-192.5 -80t-151 -21q-87 10 -166.5 98.5t-97.5 181.5zM580 1524q0 23 4 35
q4 13 4 14q-3 6 2 6q6 0 6 6q0 9 7 13t18 1q13 -3 16 0q4 6 18.5 0t28.5 -20q30 -30 21 -45q-3 -3 -3 -23q0 -15 -26 -67q-3 -3 -24.5 -2.5t-28.5 2.5q-11 4 -15 18t-16 25q-12 12 -12 37zM784 1491q-16 22 -12 33q1 4 6 32q2 10 7 20t10 15.5t8 3.5q4 0 6 4q5 9 27.5 1
t27.5 -19q4 -8 8 -8q7 0 7 -6q1 -58 -3.5 -77t-19.5 -24q-10 -3 -10 -6q-1 -2 -3 -2t-9 4q-1 0 -31 8q-2 0 -19 21z" />
    <glyph glyph-name="Igrave" unicode="&#xcc;" horiz-adv-x="399" 
d="M-119 -88q-12 21 -17.5 37t-5 32t12.5 27t37 17q8 2 16 2q6 1 7 8q1 4 1 6q5 25 13 72.5t16 84.5t19 74q12 38 27.5 82t34 97t28.5 81q72 202 80 230q39 129 75 221q5 12 5 14t-5 9q21 25 27 41q5 12 6 19t-2 8.5t-6.5 1t-11 -3t-11.5 -3.5q-42 -9 -81 42q-34 44 -26 74
q3 12 15 15q14 4 31.5 7t30.5 7.5t32 14.5q68 35 111.5 56t106 41.5t118.5 27.5q38 5 49 -10t-12 -50q-15 -24 -106 -80q-8 -4 -21.5 -10t-19 -9.5t-9 -12.5t-0.5 -23q5 -25 -2.5 -54.5t-16 -47t-26.5 -49.5q-16 -27 -28.5 -73t-16.5 -58q-15 -40 -45.5 -122t-46.5 -122
q-19 -47 -52.5 -140.5t-51.5 -140.5t-57 -172t-35 -141q1 -5 79 14q11 2 32 8.5t36.5 9.5t30.5 3q3 0 36.5 11.5t65.5 22.5t33 9q-16 -16 -79 -61.5t-140 -96t-145.5 -79.5t-84.5 -9q-5 7 -9.5 7t-8.5 3q-3 3 -14 9t-19 22zM248 1538q0 19 17 46.5t42 27.5q24 0 41 -29
q1 -1 21 -33.5t32 -54.5q39 -72 39 -90q0 -6 -4.5 -12.5t-15.5 -6.5q-7 0 -14.5 2t-17.5 8t-16 9.5t-20 13t-18 11.5q-32 22 -76 59q-10 7 -10 49z" />
    <glyph glyph-name="Iacute" unicode="&#xcd;" horiz-adv-x="399" 
d="M-119 -88q-12 21 -17.5 37t-5 32t12.5 27t37 17q8 2 16 2q6 1 7 8q1 4 1 6q5 25 13 72.5t16 84.5t19 74q12 38 27.5 82t34 97t28.5 81q72 202 80 230q39 129 75 221q5 12 5 14t-5 9q21 25 27 41q5 12 6 19t-2 8.5t-6.5 1t-11 -3t-11.5 -3.5q-42 -9 -81 42q-34 44 -26 74
q3 12 15 15q14 4 31.5 7t30.5 7.5t32 14.5q68 35 111.5 56t106 41.5t118.5 27.5q38 5 49 -10t-12 -50q-15 -24 -106 -80q-8 -4 -21.5 -10t-19 -9.5t-9 -12.5t-0.5 -23q5 -25 -2.5 -54.5t-16 -47t-26.5 -49.5q-16 -27 -28.5 -73t-16.5 -58q-15 -40 -45.5 -122t-46.5 -122
q-19 -47 -52.5 -140.5t-51.5 -140.5t-57 -172t-35 -141q1 -5 79 14q11 2 32 8.5t36.5 9.5t30.5 3q3 0 36.5 11.5t65.5 22.5t33 9q-16 -16 -79 -61.5t-140 -96t-145.5 -79.5t-84.5 -9q-5 7 -9.5 7t-8.5 3q-3 3 -14 9t-19 22zM381 1405q0 17 49 86q14 20 37.5 50t26.5 34
q16 22 38 22t39 -24.5t17 -46.5q0 -29 -8 -45q-1 -1 -2.5 -3t-2.5 -3l-2 -5q-4 -3 -19 -13t-31 -20t-31 -18q-68 -35 -89 -35q-22 0 -22 21z" />
    <glyph glyph-name="Icircumflex" unicode="&#xce;" horiz-adv-x="399" 
d="M-119 -88q-12 21 -17.5 37t-5 32t12.5 27t37 17q8 2 16 2q6 1 7 8q1 4 1 6q5 25 13 72.5t16 84.5t19 74q12 38 27.5 82t34 97t28.5 81q72 202 80 230q39 129 75 221q5 12 5 14t-5 9q21 25 27 41q5 12 6 19t-2 8.5t-6.5 1t-11 -3t-11.5 -3.5q-42 -9 -81 42q-34 44 -26 74
q3 12 15 15q14 4 31.5 7t30.5 7.5t32 14.5q68 35 111.5 56t106 41.5t118.5 27.5q38 5 49 -10t-12 -50q-15 -24 -106 -80q-8 -4 -21.5 -10t-19 -9.5t-9 -12.5t-0.5 -23q5 -25 -2.5 -54.5t-16 -47t-26.5 -49.5q-16 -27 -28.5 -73t-16.5 -58q-15 -40 -45.5 -122t-46.5 -122
q-19 -47 -52.5 -140.5t-51.5 -140.5t-57 -172t-35 -141q1 -5 79 14q11 2 32 8.5t36.5 9.5t30.5 3q3 0 36.5 11.5t65.5 22.5t33 9q-16 -16 -79 -61.5t-140 -96t-145.5 -79.5t-84.5 -9q-5 7 -9.5 7t-8.5 3q-3 3 -14 9t-19 22zM348 1489q-72 0 -72 43q0 9 11 20q6 15 20 35.5
t22.5 31.5t30 36.5t23.5 27.5q16 19 51 19q46 0 72 -51t26 -101q0 -18 9.5 -55t9.5 -55q0 -35 -53 -35q-11 0 -17 6l-6 6q-6 6 -10.5 13t-8 16.5t-5 15t-5 18.5t-4.5 17q-2 9 -9.5 33.5t-10.5 38.5q-4 -6 -8.5 -17t-5.5 -12q-14 -28 -19 -33q-18 -18 -41 -18z" />
    <glyph glyph-name="Idieresis" unicode="&#xcf;" horiz-adv-x="399" 
d="M-119 -88q-12 21 -17.5 37t-5 32t12.5 27t37 17q8 2 16 2q6 1 7 8q1 4 1 6q5 25 13 72.5t16 84.5t19 74q12 38 27.5 82t34 97t28.5 81q72 202 80 230q39 129 75 221q5 12 5 14t-5 9q21 25 27 41q5 12 6 19t-2 8.5t-6.5 1t-11 -3t-11.5 -3.5q-42 -9 -81 42q-34 44 -26 74
q3 12 15 15q14 4 31.5 7t30.5 7.5t32 14.5q68 35 111.5 56t106 41.5t118.5 27.5q38 5 49 -10t-12 -50q-15 -24 -106 -80q-8 -4 -21.5 -10t-19 -9.5t-9 -12.5t-0.5 -23q5 -25 -2.5 -54.5t-16 -47t-26.5 -49.5q-16 -27 -28.5 -73t-16.5 -58q-15 -40 -45.5 -122t-46.5 -122
q-19 -47 -52.5 -140.5t-51.5 -140.5t-57 -172t-35 -141q1 -5 79 14q11 2 32 8.5t36.5 9.5t30.5 3q3 0 36.5 11.5t65.5 22.5t33 9q-16 -16 -79 -61.5t-140 -96t-145.5 -79.5t-84.5 -9q-5 7 -9.5 7t-8.5 3q-3 3 -14 9t-19 22zM315 1518q0 22 4 34q6 12 3 15q0 6 4 6t4 6
q0 9 7 13.5t19 0.5q13 -4 17 0q3 6 17.5 -0.5t27.5 -19.5q31 -31 22 -45q-6 -6 -2 -23q3 -10 -6 -33t-20 -34q-4 -3 -26.5 -2.5t-29.5 2.5q-10 3 -14 18q-6 16 -14 25q-13 13 -13 37zM520 1485q-18 24 -14 33q4 12 8 32q2 10 6.5 20t9 15.5t7.5 3.5q6 0 8 4q5 9 26.5 1
t26.5 -19q4 -8 8 -8q6 0 6 -6q3 -60 -1 -80.5t-21 -20.5q-8 0 -8 -6q-1 -3 -3.5 -2t-9.5 4q-7 5 -30 8q-2 0 -19 21z" />
    <glyph glyph-name="Eth" unicode="&#xd0;" horiz-adv-x="948" 
d="M-109 -27q-24 79 43 146q12 12 17.5 20t6.5 12.5t3.5 16t5.5 22.5q7 21 42 125.5t50 159.5q10 39 27 88q-6 0 -14 -1t-9 -1q-11 0 -27 8t-22 17q-9 14 -20 14q-10 0 -14 21q-3 16 -9 16q-8 0 -3 13q2 6 12 30q4 10 23 24t34 19q19 5 100 8q3 12 10.5 37t10.5 37
q6 24 20.5 71.5t16.5 53.5q1 4 5.5 17.5t7.5 23.5t3 14q0 11 2 17t2 8q-1 5 -14.5 16t-29 24.5t-26.5 46.5t-8 79q1 10 5 20t9 18t15 17.5t16.5 15t20 14.5t19.5 12.5t20.5 12t17.5 10.5q162 97 342 97q99 0 236 -37q58 -16 118.5 -84t83.5 -133q32 -82 28.5 -168
t-27 -167.5t-73.5 -163.5t-109.5 -156.5t-135 -147t-151 -135t-157 -119.5t-152.5 -101t-138 -79q-53 -27 -86 -27q-9 0 -17.5 1.5t-14.5 3t-14.5 6.5t-12.5 7t-13.5 9.5t-12 9.5t-12.5 11.5t-12 10.5q-5 4 -15 11t-15.5 13t-8.5 15zM82 96q66 23 172.5 93t223 168.5
t224 214.5t177 230.5t82 216t-61.5 171.5q-37 34 -124.5 52t-158.5 18q-34 0 -99.5 -9.5t-82.5 -21.5q-7 -6 -63.5 -194t-71.5 -251q-2 -7 -5 -22t-5 -23q56 4 174 27q75 14 92 14q11 0 11.5 -1t-5.5 -7l-4 -4q-10 -10 -10 -23q0 -16 -4 -24q-6 -12 -32 -31.5t-36 -19.5
q-8 0 -39 -13t-33 -16q0 -5 -6 -2q-7 3 -16 -6q-10 -10 -92 -23q-28 -4 -37 -10q-4 -4 -16 -4q-2 -7 -5.5 -22.5t-5.5 -22.5q-32 -113 -47 -150q-23 -63 -58 -170t-38 -135z" />
    <glyph glyph-name="Ntilde" unicode="&#xd1;" horiz-adv-x="1021" 
d="M-109 -170q-20 28 -20 67t20 121q2 9 5.5 24t6 24.5t3.5 13.5q46 211 69 256q2 4 2 16q0 10 3 13q4 3 24.5 67t20.5 72q-2 4 2 8q3 0 11 17t9 28q2 16 24.5 92.5t30.5 87.5q7 10 18 48.5t11 56.5q0 12 8 32t8 27q3 24 17 66q5 16 10.5 44.5t5.5 35.5q0 2 2.5 9.5
l3.5 10.5q4 12 4 20q0 9 7 27q9 23 6 33q-3 7 1.5 11t16.5 9q21 7 30 4.5t40 -22.5q69 -45 69 -70q0 -5 11 -16q8 -8 8 -14q0 -3 8 -11t8 -16q0 -5 13 -27q14 -23 29.5 -65.5t15.5 -61.5q0 -17 8 -37q9 -22 20 -86q4 -20 6 -24q6 -12 9 -31t13.5 -50.5t16.5 -37.5
q13 -13 19 -59q14 -90 35 -154q4 -12 12 -38t12 -38q0 -3 28 -61t32 -59q7 -3 22 47t31.5 110t23.5 72q14 24 72 237q9 34 32.5 108t33.5 112q6 22 18.5 63.5t20.5 69.5t17.5 71.5t10 70t-3.5 63.5q-6 22 -1 29.5t24 4.5q15 -3 35 -17.5t20 -23.5l6 -9q6 -9 12 -15
q16 -16 21.5 -29.5t7.5 -36.5q0 -2 1 -6t1 -6q2 -19 2 -37t-2 -36.5t-4 -32t-6.5 -34t-7.5 -31t-9.5 -34.5t-9.5 -35q-9 -36 -30 -94.5t-27 -79.5q-6 -22 -13 -70t-16 -71q-7 -18 -9 -47.5t-5 -44.5q-24 -115 -66 -242q-2 -7 -17.5 -50.5t-25.5 -77.5t-8 -46q3 -3 -4 -25
q-7 -23 -4 -36q2 -11 0 -15.5t-12 -7.5q-16 -4 -39 -4q-21 0 -47 18q-77 53 -140 145.5t-98.5 184t-60.5 195.5q-5 22 -12.5 51.5t-12.5 50.5q-32 132 -59 193l-7 14l-12 -16q-14 -17 -14 -43q0 -38 -25 -101q-6 -15 -18 -55q-10 -39 -14 -43q-2 -3 -7 -16t-10 -19
q-10 -10 -6 -18q3 -8 -4 -15q-4 -4 -4 -18q0 -11 -4 -23q-4 -13 -27 -98q-23 -89 -33 -92q-2 -2 -2 -12q0 -13 -2 -17q-24 -48 -24 -69q0 -4 -2.5 -8.5t-4.5 -4.5q-4 0 -4 -8q0 -7 -3.5 -24.5t-6.5 -20.5q-2 0 -2 -12q0 -13 -2 -13q-4 1 -8 -7.5t-7 -22t-3 -25.5
q0 -20 -4 -24q-2 0 -3 -4t0 -7q6 -14 -16 -55q-10 -20 -10 -70q0 -14 -4 -26q-6 -18 -4 -27q6 -31 -21 -31q-41 0 -67 15.5t-50 50.5zM520 1303q-22 0 -40.5 18.5t-18.5 40.5q0 10 7 44.5t13 47.5q0 15 41 49l10 8l13 -6q5 -2 14 -7t14 -7q15 -2 27 -14q5 -5 19.5 -22
t28 -30t24.5 -18q20 0 53 33q5 5 13 13.5t12 12.5q8 8 10 9q0 4 6 4q4 4 12 4t17 -6q1 -1 2 -3.5t2 -3.5q14 -28 14 -40l-2 -8q-2 -8 -2 -13q0 -2 -1 -6t-1 -6q-1 -1 -2 -3t-2 -3v-2q-2 -14 -23 -35l-2 -2q-5 -16 -26 -29q-10 -5 -11 -6h-4q-9 -19 -49 -19q-55 0 -117 76
q-4 4 -6 4q0 -4 -2 -8q-4 -10 -4 -33q0 -34 -39 -34zM803 1391l-6 -7l6 5v2z" />
    <glyph glyph-name="Ograve" unicode="&#xd2;" horiz-adv-x="909" 
d="M-25 88q-7 92 -3 142t22 139q7 38 25.5 104.5t25.5 101.5q2 11 8 23.5t8 19.5q2 11 10 34t9 28q3 17 10 34t10 29q16 54 61 146.5t56 118.5q13 32 13 33q-1 6 -15 -5q-11 -9 -39.5 -22t-46.5 -13q-13 0 -16 9q-10 31 56.5 110t111.5 115q24 19 70.5 47t86.5 68
q10 10 15 10q4 0 4 6t2 8q8 0 20 2q21 4 25 8q6 6 23 6t30 -6q15 -6 21 -6q17 -8 36 -30q10 -12 13 -29t-2 -29q-1 -4 1 -7t13 -7q3 -1 10 -4.5t15 -7t14 -7.5q16 -8 54 -36.5t40 -32.5q9 -18 70.5 -116.5t75.5 -156.5q28 -127 -7 -217q-5 -13 -10.5 -33t-11.5 -36t-15 -31
q-15 -23 -30.5 -60.5t-22.5 -50.5q-8 -14 -40 -81t-52 -93q-9 -11 -19 -29t-16 -26q-39 -53 -59 -96q-21 -44 -64 -96l-15.5 -15.5t-14.5 -17.5q-68 -111 -123 -133q-5 -2 -8.5 -6.5t-10.5 -8.5q-4 -2 -16 -9t-15.5 -9t-13 -7t-14 -6.5t-13.5 -5t-16 -5.5t-16.5 -4t-20.5 -3
q-37 -6 -59 -2q-48 9 -80 21q-62 24 -108 94.5t-52 138.5zM104 164q-3 -24 -1 -59t6.5 -67.5t24.5 -57.5t52 -29q31 -4 70 18q62 36 127.5 105t122.5 155t100 161.5t82 154.5q68 136 85 191q37 117 9 225q-3 7 -9 21.5t-7 18.5q-17 67 -85.5 126t-137.5 67q-23 2 -35 -6
q-16 -12 -19 -21q-3 -10 -18 -22q-18 -14 -29 -40t-22 -40q-22 -29 -43 -66t-31.5 -60.5t-32 -74.5t-28.5 -67q-4 -10 -19 -41t-26 -57.5t-15 -41.5q-2 -10 -6.5 -17t-5.5 -11q-13 -62 -35 -113q-7 -15 -9 -30.5t-5 -24.5q-4 -10 -7.5 -26.5t-6.5 -22.5q-16 -34 -31 -162
q-2 -13 -8 -41.5t-7 -44.5zM446 1520q-4 8 -4 39q0 18 17.5 45.5t42.5 27.5q31 0 82 -89.5t51 -117.5q0 -6 -5 -12t-16 -6q-30 0 -88 43q-17 13 -43 34t-32 25q-5 5 -5 11z" />
    <glyph glyph-name="Oacute" unicode="&#xd3;" horiz-adv-x="909" 
d="M-25 88q-7 92 -3 142t22 139q7 38 25.5 104.5t25.5 101.5q2 11 8 23.5t8 19.5q2 11 10 34t9 28q3 17 10 34t10 29q16 54 61 146.5t56 118.5q13 32 13 33q-1 6 -15 -5q-11 -9 -39.5 -22t-46.5 -13q-13 0 -16 9q-10 31 56.5 110t111.5 115q24 19 70.5 47t86.5 68
q10 10 15 10q4 0 4 6t2 8q8 0 20 2q21 4 25 8q6 6 23 6t30 -6q15 -6 21 -6q17 -8 36 -30q10 -12 13 -29t-2 -29q-1 -4 1 -7t13 -7q3 -1 10 -4.5t15 -7t14 -7.5q16 -8 54 -36.5t40 -32.5q9 -18 70.5 -116.5t75.5 -156.5q28 -127 -7 -217q-5 -13 -10.5 -33t-11.5 -36t-15 -31
q-15 -23 -30.5 -60.5t-22.5 -50.5q-8 -14 -40 -81t-52 -93q-9 -11 -19 -29t-16 -26q-39 -53 -59 -96q-21 -44 -64 -96l-15.5 -15.5t-14.5 -17.5q-68 -111 -123 -133q-5 -2 -8.5 -6.5t-10.5 -8.5q-4 -2 -16 -9t-15.5 -9t-13 -7t-14 -6.5t-13.5 -5t-16 -5.5t-16.5 -4t-20.5 -3
q-37 -6 -59 -2q-48 9 -80 21q-62 24 -108 94.5t-52 138.5zM104 164q-3 -24 -1 -59t6.5 -67.5t24.5 -57.5t52 -29q31 -4 70 18q62 36 127.5 105t122.5 155t100 161.5t82 154.5q68 136 85 191q37 117 9 225q-3 7 -9 21.5t-7 18.5q-17 67 -85.5 126t-137.5 67q-23 2 -35 -6
q-16 -12 -19 -21q-3 -10 -18 -22q-18 -14 -29 -40t-22 -40q-22 -29 -43 -66t-31.5 -60.5t-32 -74.5t-28.5 -67q-4 -10 -19 -41t-26 -57.5t-15 -41.5q-2 -10 -6.5 -17t-5.5 -11q-13 -62 -35 -113q-7 -15 -9 -30.5t-5 -24.5q-4 -10 -7.5 -26.5t-6.5 -22.5q-16 -34 -31 -162
q-2 -13 -8 -41.5t-7 -44.5zM360 1399q0 18 50 88q14 20 37 50t26 34q17 22 39 22q21 0 38 -24.5t17 -46.5q0 -29 -8 -45q-1 -1 -2 -3.5t-2 -3.5l-2 -4q-79 -49 -82 -51q-68 -35 -88 -35q-11 0 -17 6t-6 13z" />
    <glyph glyph-name="Ocircumflex" unicode="&#xd4;" horiz-adv-x="909" 
d="M-25 88q-7 92 -3 142t22 139q7 38 25.5 104.5t25.5 101.5q2 11 8 23.5t8 19.5q2 11 10 34t9 28q3 17 10 34t10 29q16 54 61 146.5t56 118.5q13 32 13 33q-1 6 -15 -5q-11 -9 -39.5 -22t-46.5 -13q-13 0 -16 9q-10 31 56.5 110t111.5 115q24 19 70.5 47t86.5 68
q10 10 15 10q4 0 4 6t2 8q8 0 20 2q21 4 25 8q6 6 23 6t30 -6q15 -6 21 -6q17 -8 36 -30q10 -12 13 -29t-2 -29q-1 -4 1 -7t13 -7q3 -1 10 -4.5t15 -7t14 -7.5q16 -8 54 -36.5t40 -32.5q9 -18 70.5 -116.5t75.5 -156.5q28 -127 -7 -217q-5 -13 -10.5 -33t-11.5 -36t-15 -31
q-15 -23 -30.5 -60.5t-22.5 -50.5q-8 -14 -40 -81t-52 -93q-9 -11 -19 -29t-16 -26q-39 -53 -59 -96q-21 -44 -64 -96l-15.5 -15.5t-14.5 -17.5q-68 -111 -123 -133q-5 -2 -8.5 -6.5t-10.5 -8.5q-4 -2 -16 -9t-15.5 -9t-13 -7t-14 -6.5t-13.5 -5t-16 -5.5t-16.5 -4t-20.5 -3
q-37 -6 -59 -2q-48 9 -80 21q-62 24 -108 94.5t-52 138.5zM104 164q-3 -24 -1 -59t6.5 -67.5t24.5 -57.5t52 -29q31 -4 70 18q62 36 127.5 105t122.5 155t100 161.5t82 154.5q68 136 85 191q37 117 9 225q-3 7 -9 21.5t-7 18.5q-17 67 -85.5 126t-137.5 67q-23 2 -35 -6
q-16 -12 -19 -21q-3 -10 -18 -22q-18 -14 -29 -40t-22 -40q-22 -29 -43 -66t-31.5 -60.5t-32 -74.5t-28.5 -67q-4 -10 -19 -41t-26 -57.5t-15 -41.5q-2 -10 -6.5 -17t-5.5 -11q-13 -62 -35 -113q-7 -15 -9 -30.5t-5 -24.5q-4 -10 -7.5 -26.5t-6.5 -22.5q-16 -34 -31 -162
q-2 -13 -8 -41.5t-7 -44.5zM553 1450q-71 0 -74 45q0 8 8 16q1 0 2.5 1t2.5 1q0 3 2 5q16 41 92 129q15 18 53 18q42 0 70 -54.5t28 -97.5q0 -20 9 -57.5t10 -54.5q0 -13 -11 -21q-16 -12 -32 -10q0 -2 -11 -2q-12 0 -18 6l-4 4q-22 22 -35 80q-9 38 -18 72q-7 -10 -15 -29
q-19 -51 -59 -51z" />
    <glyph glyph-name="Otilde" unicode="&#xd5;" horiz-adv-x="909" 
d="M-25 88q-7 92 -3 142t22 139q7 38 25.5 104.5t25.5 101.5q2 11 8 23.5t8 19.5q2 11 10 34t9 28q3 17 10 34t10 29q16 54 61 146.5t56 118.5q13 32 13 33q-1 6 -15 -5q-11 -9 -39.5 -22t-46.5 -13q-13 0 -16 9q-10 31 56.5 110t111.5 115q24 19 70.5 47t86.5 68
q10 10 15 10q4 0 4 6t2 8q8 0 20 2q21 4 25 8q6 6 23 6t30 -6q15 -6 21 -6q17 -8 36 -30q10 -12 13 -29t-2 -29q-1 -4 1 -7t13 -7q3 -1 10 -4.5t15 -7t14 -7.5q16 -8 54 -36.5t40 -32.5q9 -18 70.5 -116.5t75.5 -156.5q28 -127 -7 -217q-5 -13 -10.5 -33t-11.5 -36t-15 -31
q-15 -23 -30.5 -60.5t-22.5 -50.5q-8 -14 -40 -81t-52 -93q-9 -11 -19 -29t-16 -26q-39 -53 -59 -96q-21 -44 -64 -96l-15.5 -15.5t-14.5 -17.5q-68 -111 -123 -133q-5 -2 -8.5 -6.5t-10.5 -8.5q-4 -2 -16 -9t-15.5 -9t-13 -7t-14 -6.5t-13.5 -5t-16 -5.5t-16.5 -4t-20.5 -3
q-37 -6 -59 -2q-48 9 -80 21q-62 24 -108 94.5t-52 138.5zM104 164q-3 -24 -1 -59t6.5 -67.5t24.5 -57.5t52 -29q31 -4 70 18q62 36 127.5 105t122.5 155t100 161.5t82 154.5q68 136 85 191q37 117 9 225q-3 7 -9 21.5t-7 18.5q-17 67 -85.5 126t-137.5 67q-23 2 -35 -6
q-16 -12 -19 -21q-3 -10 -18 -22q-18 -14 -29 -40t-22 -40q-22 -29 -43 -66t-31.5 -60.5t-32 -74.5t-28.5 -67q-4 -10 -19 -41t-26 -57.5t-15 -41.5q-2 -10 -6.5 -17t-5.5 -11q-13 -62 -35 -113q-7 -15 -9 -30.5t-5 -24.5q-4 -10 -7.5 -26.5t-6.5 -22.5q-16 -34 -31 -162
q-2 -13 -8 -41.5t-7 -44.5zM504 1430q-20 0 -39 21t-19 40q0 9 7 44t12 46q3 14 18 29q10 10 25 20l10 8l12 -6q14 -7 17 -8q8 -4 12 -4q16 -2 25 -16q7 -10 29 -33t32 -29q8 -4 10 -6q14 0 27 8q10 6 29 25q4 4 11.5 12.5t10.5 11.5l10 11q1 1 3.5 2t3.5 2q2 0 6.5 1t7.5 1
q10 0 16 -6q0 -3 4 -7q15 -30 15 -38q0 -5 -4 -21q0 -8 -4 -12q0 -1 -1.5 -3.5t-1.5 -4.5q0 -5 -4 -12.5t-4 -8.5q-1 -4 -3.5 -6.5t-6 -4.5t-4.5 -3q-7 -18 -29 -31l-12 -6q-12 -19 -51 -19q-43 0 -119 76l-4 4q0 -1 -1 -4t-1 -4q-6 -15 -6 -33q0 -36 -39 -36zM788 1518h-2
l-4 -5z" />
    <glyph glyph-name="Odieresis" unicode="&#xd6;" horiz-adv-x="909" 
d="M-25 88q-7 92 -3 142t22 139q7 38 25.5 104.5t25.5 101.5q2 11 8 23.5t8 19.5q2 11 10 34t9 28q3 17 10 34t10 29q16 54 61 146.5t56 118.5q13 32 13 33q-1 6 -15 -5q-11 -9 -39.5 -22t-46.5 -13q-13 0 -16 9q-10 31 56.5 110t111.5 115q24 19 70.5 47t86.5 68
q10 10 15 10q4 0 4 6t2 8q8 0 20 2q21 4 25 8q6 6 23 6t30 -6q15 -6 21 -6q17 -8 36 -30q10 -12 13 -29t-2 -29q-1 -4 1 -7t13 -7q3 -1 10 -4.5t15 -7t14 -7.5q16 -8 54 -36.5t40 -32.5q9 -18 70.5 -116.5t75.5 -156.5q28 -127 -7 -217q-5 -13 -10.5 -33t-11.5 -36t-15 -31
q-15 -23 -30.5 -60.5t-22.5 -50.5q-8 -14 -40 -81t-52 -93q-9 -11 -19 -29t-16 -26q-39 -53 -59 -96q-21 -44 -64 -96l-15.5 -15.5t-14.5 -17.5q-68 -111 -123 -133q-5 -2 -8.5 -6.5t-10.5 -8.5q-4 -2 -16 -9t-15.5 -9t-13 -7t-14 -6.5t-13.5 -5t-16 -5.5t-16.5 -4t-20.5 -3
q-37 -6 -59 -2q-48 9 -80 21q-62 24 -108 94.5t-52 138.5zM104 164q-3 -24 -1 -59t6.5 -67.5t24.5 -57.5t52 -29q31 -4 70 18q62 36 127.5 105t122.5 155t100 161.5t82 154.5q68 136 85 191q37 117 9 225q-3 7 -9 21.5t-7 18.5q-17 67 -85.5 126t-137.5 67q-23 2 -35 -6
q-16 -12 -19 -21q-3 -10 -18 -22q-18 -14 -29 -40t-22 -40q-22 -29 -43 -66t-31.5 -60.5t-32 -74.5t-28.5 -67q-4 -10 -19 -41t-26 -57.5t-15 -41.5q-2 -10 -6.5 -17t-5.5 -11q-13 -62 -35 -113q-7 -15 -9 -30.5t-5 -24.5q-4 -10 -7.5 -26.5t-6.5 -22.5q-16 -34 -31 -162
q-2 -13 -8 -41.5t-7 -44.5zM356 1536q0 27 6 33q10 9 3 16q0 6 4 6t4 6q0 9 7 13.5t17 1.5q17 -4 17 0q4 6 18.5 -0.5t28.5 -20.5q29 -29 22 -45q-4 -4 -4 -22q0 -13 -7 -35.5t-17 -32.5q-4 -3 -26.5 -2.5t-29.5 2.5q-10 3 -14 19q-5 15 -14 24q-12 12 -15 37zM561 1503
q-16 22 -12 33q1 3 6 33q2 10 7 20t10 15.5t8 3.5q2 -2 8 4q7 7 27.5 -0.5t25.5 -18.5q4 -8 8 -8q6 0 6 -6q2 -59 -2.5 -79.5t-19.5 -20.5q-10 0 -10 -6q-1 -2 -2.5 -2t-8.5 4l-32 8q-9 8 -19 20z" />
    <glyph glyph-name="multiply" unicode="&#xd7;" horiz-adv-x="872" 
d="M180 324q-4 -2 -5.5 -2.5t-2.5 0.5t-2 4q0 10 -4 10q-10 10 -2 35q6 20 31 49t55 53q65 53 59 59q-5 8 45 46q17 12 37 32q-19 14 -47 31q-25 15 -31 21q-12 12 -22 12q-15 4 -15 8t-8 4q-6 0 -28.5 17.5t-28.5 27.5q-4 2 -4 12q0 9 -4 13q-2 2 -2 6q8 8 14 31
q4 17 13 32t14 15q10 0 18 8q15 12 25 4l12 -4q2 2 6 -2q4 -8 12 -4q12 0 12 -4q1 -1 -3 -2t22 -22q26 -20 60 -42q58 -38 71 -51l8 -8q3 3 9 6.5t8 5.5q5 5 8 0q2 -4 8 2q6 10 17 6q9 -2 9 0l-1 4q-3 8 1 12t11 1q7 -2 10 6q7 15 80 58.5t92 45.5q13 0 17 4q3 5 6 2
q2 -2 8 -2q4 4 66 -10q22 -5 40 -23q24 -26 11 -61q-6 -17 -10.5 -21.5t-16.5 -7.5q-12 -2 -51 -24q-34 -21 -35 -21q-3 0 -34 -19.5t-70 -44t-45 -28.5q77 -73 100 -100q34 -40 35 -41q28 -32 35 -41q11 -14 4 -21q-5 -5 -25 -17t-27 -13q-13 -3 -66.5 33t-98.5 81
q-15 15 -35 23q-13 8 -13 10q0 4 -2 4q-1 0 -3.5 2t-7.5 5.5t-9 5.5q-13 -8 -40 -27t-40 -27q-28 -20 -127 -82q-27 -15 -76 -57q-17 -14 -26 -12q-11 2 -21 -6z" />
    <glyph glyph-name="Oslash" unicode="&#xd8;" horiz-adv-x="909" 
d="M-61 88q0 21 14 35l18 18q-3 57 2.5 102.5t20.5 125.5q7 36 25.5 103t25.5 103q2 11 8 23.5t8 19.5t7 21t8 25t4 16q3 17 10 34t10 29q16 53 61 145.5t56 119.5q13 32 13 33q-1 6 -15 -5q-11 -9 -39.5 -22t-46.5 -13q-13 0 -16 9q-10 31 56.5 110t111.5 115
q24 19 70.5 47t86.5 68q10 10 15 10q4 0 4 6t2 8q8 0 20 2q21 4 25 8q6 6 23 6t30 -6q15 -6 21 -6q5 -3 36 -30q23 -21 11 -58q-1 -4 1 -7t13 -7q31 -13 78.5 -42.5t54.5 -45.5q56 -56 115 -172l4 2q60 11 59 -8l-2 -6q-2 -6 -4.5 -16.5t-3.5 -12.5q-5 -15 -6 -17
q-5 -5 -12 -26q0 -4 -4 -12v-5q25 -133 -7 -217q-5 -13 -10.5 -33t-11.5 -36t-15 -31q-15 -23 -30.5 -60.5t-22.5 -50.5q-8 -14 -40 -81t-52 -93q-9 -11 -19 -29t-16 -26q-25 -34 -59 -96q-37 -64 -64 -96l-15.5 -15.5t-14.5 -17.5q-25 -41 -59.5 -81.5t-63.5 -51.5
q-5 -2 -8.5 -6.5t-10.5 -8.5q-4 -2 -16 -9t-15.5 -9t-13 -7t-14 -6.5t-13.5 -5t-16 -5.5t-16.5 -4t-20.5 -3q-37 -6 -59 -2q-48 9 -80 21q-25 9 -62 41.5t-53 58.5q-13 22 -28.5 67t-18.5 72l-14 -10q-4 -4 -18 -4q0 4 -2 8zM164 461q-21 -52 -39 -166q107 107 133 125
q46 33 160 147q6 6 16.5 16t11.5 11l99 98q20 20 22 21q17 8 46.5 40.5t45.5 55.5q15 19 27 27q9 6 21 18q11 12 19 21.5t11 11.5q8 8 24.5 25.5t24.5 25.5q-8 45 -20 63q-8 12 -8 15t-41 67q-29 43 -77 75t-97 36q-23 2 -35 -6q-5 -4 -12 -12l-7 -9q-2 -2 -7.5 -10.5
t-10.5 -11.5q-17 -14 -29 -40t-22 -40q-18 -25 -33 -50t-30 -56.5t-23 -49t-26 -59t-23 -53.5q-4 -10 -19 -41t-26 -57.5t-15 -41.5q-2 -10 -6.5 -17t-5.5 -11q-13 -62 -35 -113q-6 -14 -7.5 -28.5t-6.5 -26.5zM104 164q-3 -24 -1 -59t6.5 -67.5t24.5 -57.5t52 -29
q31 -4 70 18q203 118 432 576q76 153 94 227q-149 -141 -161 -145q-4 -2 -21 -19q-48 -48 -84 -73q-20 -16 -27 -23q-14 -14 -22 -20q-14 -11 -12 -13l-6 -4q-6 -3 -15 -12q-10 -10 -14 -12q-3 -1 -34 -27t-34 -29q-29 -29 -45 -37q-6 -3 -10.5 -7t-7 -7t-2.5 -4
q-4 -4 -6 -4q-3 3 -7 -4q-6 -6 -18 -15q-24 -18 -51 -45q-9 -9 -18.5 -16.5t-16.5 -11.5l-6 -4q-19 -5 -27 -21l-8 -8q-1 0 -3 -1.5t-5.5 -4t-5.5 -4.5q-4 -4 -6 -4q-5 -30 -5 -33z" />
    <glyph glyph-name="Ugrave" unicode="&#xd9;" horiz-adv-x="1300" 
d="M78 156q-13 83 19 211t74.5 226.5t94.5 197.5q4 7 25.5 48.5t31 59t31 54.5t36.5 58.5t35.5 47t39.5 41.5q8 0 24 12q35 26 46 21q7 -5 18 -5q13 0 45.5 -25.5t38.5 -41.5q3 -9 2.5 -36t-4.5 -30l-2 -2q-5 -9 -2 -13.5t-3 -10.5t-28 -15q-18 -7 -48 -39t-42 -53
q-31 -57 -55 -94q-13 -19 -23.5 -39t-22.5 -45t-20 -39q-68 -131 -121 -291q-6 -19 -12.5 -40.5t-15 -55.5t-12.5 -60t-5.5 -54.5t6.5 -39.5q5 -10 23 -10q34 0 100.5 47t146.5 123t125.5 122t90.5 93q21 22 69.5 73t77.5 82t68 75.5t67 81.5q4 5 37 43q125 144 170 274
q1 2 2.5 10t3.5 14t4 7q25 11 25 123q0 8 12.5 14.5t26.5 3.5q8 -2 29 -2q32 -10 68 -51t36 -76q0 -63 -19.5 -142.5t-48.5 -138.5q-21 -44 -51 -123t-41 -104q-31 -74 -45 -115q-4 -11 -11.5 -39.5t-10.5 -35.5q-9 -20 -17 -43.5t-17.5 -53.5t-14.5 -45q-3 -9 -18 -70.5
t-17 -66.5q-48 -127 -56 -199q-4 -33 -15 -48.5t-11 -16.5q-1 -4 -7 -4.5t-15 1t-11 1.5q-22 1 -27.5 11.5t-7.5 10.5q-43 0 -32 158q5 56 10 82q6 34 24.5 107.5t24.5 111.5q2 12 7 33t7 33q3 17 15 55.5t14 62.5q-20 -19 -55 -59t-56 -59q-5 -5 -9 -8.5t-6 -5t-3 -2t-2 -2
t-1.5 -2.5t-3 -5t-5.5 -8q-14 -21 -37.5 -48.5t-41 -46t-49 -50t-40.5 -41.5q-24 -25 -68.5 -65t-64.5 -60q-33 -33 -52 -50.5t-55.5 -48t-68.5 -45t-60 -14.5h-12l-11 -2q-88 -18 -156.5 45.5t-84.5 159.5zM733 1452q0 18 17.5 46t40.5 28q27 0 40 -27q4 -7 12 -20.5
t22 -35t22 -34.5q39 -68 39 -90q0 -6 -5 -12.5t-16 -6.5q-30 0 -88 43q-17 13 -43.5 34.5t-32.5 25.5q-4 4 -4 10q-4 8 -4 39z" />
    <glyph glyph-name="Uacute" unicode="&#xda;" horiz-adv-x="1300" 
d="M78 156q-13 83 19 211t74.5 226.5t94.5 197.5q4 7 25.5 48.5t31 59t31 54.5t36.5 58.5t35.5 47t39.5 41.5q8 0 24 12q35 26 46 21q7 -5 18 -5q13 0 45.5 -25.5t38.5 -41.5q3 -9 2.5 -36t-4.5 -30l-2 -2q-5 -9 -2 -13.5t-3 -10.5t-28 -15q-18 -7 -48 -39t-42 -53
q-31 -57 -55 -94q-13 -19 -23.5 -39t-22.5 -45t-20 -39q-68 -131 -121 -291q-6 -19 -12.5 -40.5t-15 -55.5t-12.5 -60t-5.5 -54.5t6.5 -39.5q5 -10 23 -10q34 0 100.5 47t146.5 123t125.5 122t90.5 93q21 22 69.5 73t77.5 82t68 75.5t67 81.5q4 5 37 43q125 144 170 274
q1 2 2.5 10t3.5 14t4 7q25 11 25 123q0 8 12.5 14.5t26.5 3.5q8 -2 29 -2q32 -10 68 -51t36 -76q0 -63 -19.5 -142.5t-48.5 -138.5q-21 -44 -51 -123t-41 -104q-31 -74 -45 -115q-4 -11 -11.5 -39.5t-10.5 -35.5q-9 -20 -17 -43.5t-17.5 -53.5t-14.5 -45q-3 -9 -18 -70.5
t-17 -66.5q-48 -127 -56 -199q-4 -33 -15 -48.5t-11 -16.5q-1 -4 -7 -4.5t-15 1t-11 1.5q-22 1 -27.5 11.5t-7.5 10.5q-43 0 -32 158q5 56 10 82q6 34 24.5 107.5t24.5 111.5q2 12 7 33t7 33q3 17 15 55.5t14 62.5q-20 -19 -55 -59t-56 -59q-5 -5 -9 -8.5t-6 -5t-3 -2t-2 -2
t-1.5 -2.5t-3 -5t-5.5 -8q-14 -21 -37.5 -48.5t-41 -46t-49 -50t-40.5 -41.5q-24 -25 -68.5 -65t-64.5 -60q-33 -33 -52 -50.5t-55.5 -48t-68.5 -45t-60 -14.5h-12l-11 -2q-88 -18 -156.5 45.5t-84.5 159.5zM764 1227q0 19 41.5 76.5t71.5 93.5q19 24 41 24q19 0 36 -25
t17 -46q0 -29 -8 -45q0 -1 -1 -3.5t-1 -3.5q-4 -4 -5 -4q-2 -1 -31.5 -20.5t-47.5 -30.5q-64 -35 -91 -35q-11 0 -16.5 6t-5.5 13z" />
    <glyph glyph-name="Ucircumflex" unicode="&#xdb;" horiz-adv-x="1300" 
d="M78 156q-13 83 19 211t74.5 226.5t94.5 197.5q4 7 25.5 48.5t31 59t31 54.5t36.5 58.5t35.5 47t39.5 41.5q8 0 24 12q35 26 46 21q7 -5 18 -5q13 0 45.5 -25.5t38.5 -41.5q3 -9 2.5 -36t-4.5 -30l-2 -2q-5 -9 -2 -13.5t-3 -10.5t-28 -15q-18 -7 -48 -39t-42 -53
q-31 -57 -55 -94q-13 -19 -23.5 -39t-22.5 -45t-20 -39q-68 -131 -121 -291q-6 -19 -12.5 -40.5t-15 -55.5t-12.5 -60t-5.5 -54.5t6.5 -39.5q5 -10 23 -10q34 0 100.5 47t146.5 123t125.5 122t90.5 93q21 22 69.5 73t77.5 82t68 75.5t67 81.5q4 5 37 43q125 144 170 274
q1 2 2.5 10t3.5 14t4 7q25 11 25 123q0 8 12.5 14.5t26.5 3.5q8 -2 29 -2q32 -10 68 -51t36 -76q0 -63 -19.5 -142.5t-48.5 -138.5q-21 -44 -51 -123t-41 -104q-31 -74 -45 -115q-4 -11 -11.5 -39.5t-10.5 -35.5q-9 -20 -17 -43.5t-17.5 -53.5t-14.5 -45q-3 -9 -18 -70.5
t-17 -66.5q-48 -127 -56 -199q-4 -33 -15 -48.5t-11 -16.5q-1 -4 -7 -4.5t-15 1t-11 1.5q-22 1 -27.5 11.5t-7.5 10.5q-43 0 -32 158q5 56 10 82q6 34 24.5 107.5t24.5 111.5q2 12 7 33t7 33q3 17 15 55.5t14 62.5q-20 -19 -55 -59t-56 -59q-5 -5 -9 -8.5t-6 -5t-3 -2t-2 -2
t-1.5 -2.5t-3 -5t-5.5 -8q-14 -21 -37.5 -48.5t-41 -46t-49 -50t-40.5 -41.5q-24 -25 -68.5 -65t-64.5 -60q-33 -33 -52 -50.5t-55.5 -48t-68.5 -45t-60 -14.5h-12l-11 -2q-88 -18 -156.5 45.5t-84.5 159.5zM721 1354q0 8 8 16l4 4q17 39 43 68q19 22 51 63q16 19 54 19
q44 0 70 -52t26 -100q0 -18 9.5 -55.5t8.5 -56.5q0 -15 -8 -21q-16 -12 -33 -10q-2 -2 -12 -2q-7 0 -16 6q-4 4 -4 6q-23 36 -35 80q-9 35 -21 72l-12 -31q-19 -51 -59 -51q-74 0 -74 45z" />
    <glyph glyph-name="Udieresis" unicode="&#xdc;" horiz-adv-x="1300" 
d="M78 156q-13 83 19 211t74.5 226.5t94.5 197.5q4 7 25.5 48.5t31 59t31 54.5t36.5 58.5t35.5 47t39.5 41.5q8 0 24 12q35 26 46 21q7 -5 18 -5q13 0 45.5 -25.5t38.5 -41.5q3 -9 2.5 -36t-4.5 -30l-2 -2q-5 -9 -2 -13.5t-3 -10.5t-28 -15q-18 -7 -48 -39t-42 -53
q-31 -57 -55 -94q-13 -19 -23.5 -39t-22.5 -45t-20 -39q-68 -131 -121 -291q-6 -19 -12.5 -40.5t-15 -55.5t-12.5 -60t-5.5 -54.5t6.5 -39.5q5 -10 23 -10q34 0 100.5 47t146.5 123t125.5 122t90.5 93q21 22 69.5 73t77.5 82t68 75.5t67 81.5q4 5 37 43q125 144 170 274
q1 2 2.5 10t3.5 14t4 7q25 11 25 123q0 8 12.5 14.5t26.5 3.5q8 -2 29 -2q32 -10 68 -51t36 -76q0 -63 -19.5 -142.5t-48.5 -138.5q-21 -44 -51 -123t-41 -104q-31 -74 -45 -115q-4 -11 -11.5 -39.5t-10.5 -35.5q-9 -20 -17 -43.5t-17.5 -53.5t-14.5 -45q-3 -9 -18 -70.5
t-17 -66.5q-48 -127 -56 -199q-4 -33 -15 -48.5t-11 -16.5q-1 -4 -7 -4.5t-15 1t-11 1.5q-22 1 -27.5 11.5t-7.5 10.5q-43 0 -32 158q5 56 10 82q6 34 24.5 107.5t24.5 111.5q2 12 7 33t7 33q3 17 15 55.5t14 62.5q-20 -19 -55 -59t-56 -59q-5 -5 -9 -8.5t-6 -5t-3 -2t-2 -2
t-1.5 -2.5t-3 -5t-5.5 -8q-14 -21 -37.5 -48.5t-41 -46t-49 -50t-40.5 -41.5q-24 -25 -68.5 -65t-64.5 -60q-33 -33 -52 -50.5t-55.5 -48t-68.5 -45t-60 -14.5h-12l-11 -2q-88 -18 -156.5 45.5t-84.5 159.5zM723 1378q-12 12 -12 37q0 29 4 35q5 11 2 14q0 6 4 6t4 9
q0 8 8 12t19 0q12 -4 16 0q3 6 17 -0.5t28 -20.5q31 -31 23 -45q-5 -5 -2 -22q2 -11 -7 -34t-20 -34q-4 -3 -26 -2.5t-29 2.5q-11 4 -15 19q-5 15 -14 24zM915 1382q-19 21 -14 33q3 10 8 33q2 10 6.5 20t9 15.5t7.5 3.5q6 0 8 4q5 9 26.5 1t26.5 -19q5 -9 8 -9q7 0 7 -6
q3 -54 -2 -72t-21 -26q-8 -4 -8 -6q0 -5 -8 -2l-4 2q-19 6 -31 8q-3 0 -19 20z" />
    <glyph glyph-name="Yacute" unicode="&#xdd;" horiz-adv-x="1208" 
d="M8 113q-69 115 -31 303q10 49 48.5 158t91.5 235t119 219.5t118 93.5q20 0 58.5 -26.5t38.5 -46.5q-6 -37 -27 -54q-54 -45 -137 -202q-13 -25 -32 -73.5t-30 -70.5q-92 -188 -112 -379q-20 -188 102 -188q31 0 78 12q32 11 56.5 24t37 23t36.5 31t42 35q78 60 137 124
t129 156q10 13 62.5 82t67.5 90t58 80.5t62.5 92.5t51 85t53 99t40.5 96q8 38 50 29q22 -5 52 -24.5t40 -37.5q17 -29 10 -53q-2 -9 -20 -84.5t-33 -114.5q-13 -36 -40.5 -119.5t-45.5 -129.5q-23 -59 -99 -265q-3 -7 -9 -23t-10.5 -29t-6.5 -23q-10 -54 -51 -138
q-16 -32 -32.5 -90.5t-21.5 -72.5q-11 -31 -31 -100t-34 -105q-34 -87 -62 -240q-3 -17 -11 -50t-13 -59.5t-6 -50.5q-1 -34 25 -72t24 -65q-1 -25 -42 -32.5t-61 1.5q-17 5 -30 19t-20.5 30.5t-12 42.5t-6.5 45.5t-2 49.5t1 45t3 42t2 30q2 30 8 66t11.5 60t16.5 68t15 62
q44 179 98 348q3 9 22 62.5t39.5 113.5t40.5 121.5t29 100.5t0 36q-4 -3 -16 -26.5t-18 -30.5q-3 -4 -11 -11.5t-14.5 -14t-7.5 -9.5q-3 -11 -15.5 -23.5t-15.5 -17.5q-41 -67 -98.5 -135t-127.5 -131.5t-151 -103.5t-153 -40q-82 0 -158 40t-119 110zM623 1247
q-23 0 -23 21q0 17 49 86q14 20 37.5 50t26.5 34q17 22 39 22t38.5 -24t16.5 -47q0 -30 -8 -46q-1 -1 -2 -3t-2 -3q0 -4 -4 -4q-32 -24 -88.5 -55t-79.5 -31z" />
    <glyph glyph-name="germandbls" unicode="&#xdf;" horiz-adv-x="882" 
d="M-221 106q-9 29 -3 45q2 4 5 1t4 4v12q-3 19 6 25q10 7 10 -5q1 -4 3 -6.5t3.5 -3.5t2.5 0q7 0 10 -6q5 -12 10 -1q1 3 2 7q0 10 6 10q4 -4 4 -8q0 -5 16.5 -22t22.5 -17q7 0 10 17q3 19 15 43q10 20 10 35q0 10 6 16q5 5 13 28.5t8 34.5q0 9 6 21q10 15 22 53
q49 119 74 162q16 26 16 37q0 3 7 10q1 1 14 31q7 20 16 37q43 86 43 88q0 18 72 135q35 60 35 65q4 9 6 9q8 0 29 43q17 34 32 59q21 35 21 41q0 1 8 13.5t20.5 33t20.5 37.5q19 39 32 62t36 54t45 48.5t54.5 30t70.5 12.5q63 0 108 -31q57 -41 78 -82.5t14 -103.5
q-3 -27 -16 -77.5t-21 -64.5l-22 -45q-10 -27 -49 -84q-54 -89 -78 -92q-14 0 -14 -6l-5 -10l-2.5 -10t-4 -11.5t-5 -10t-5 -7.5t-3.5 -2q-6 0 -6 -6q0 -7 -14 -21q-13 -13 -13 -18q-1 -1 -3.5 -5t-6.5 -10.5t-8 -11.5q-18 -27 -8 -29q10 -1 49.5 -21t62.5 -34
q21 -14 27 -14q1 0 18 -17q14 -14 19 -14q3 -2 23.5 -31t33.5 -51q9 -14 21 -51q2 -8 3.5 -22t2.5 -17q15 -64 4 -90q-6 -17 -33 -52.5t-49 -54.5q-18 -15 -39 -36q-17 -17 -20 -17q-1 1 -23 -8l-21 -8l-1 1q-1 0 -1 -3q0 -2 -2.5 -3.5t-3.5 -0.5q-1 0 -28 -9q-20 -8 -31 -8
q-6 0 -27 -10.5t-24 -15.5q-17 -17 -166 -56q-3 -1 -13.5 -3t-13.5 -3q-13 -4 -18 -2q-6 3 -6 0q-2 -3 -23.5 -12t-28.5 -8q-6 0 -6 -4q0 -5 -38.5 -11.5t-55.5 -3.5q-12 2 -43 2q-24 -4 -33 -4q-10 0 -24.5 -4.5t-14.5 -7.5q0 -6 -12.5 -66t-15.5 -67q-9 -20 -21 -115
q-7 -62 -13 -76t-24 -22t-53 -2q-32 6 -51 -2q-10 -5 -13.5 -3t-7.5 15q-5 18 -8 25q-7 15 -5.5 65t9.5 68q9 18 19 88q3 23 8 28q0 1 2 9t5.5 23t6.5 28q2 9 4 19l3 15t2 10.5t1 8.5v6t-1 5t-3 5q-10 15 -14 17q-8 4 -16 16t-21 25q-11 11 -18 28zM123 334
q-13 -36 -35.5 -114t-24.5 -89q0 -2 1.5 -3t8 -1t17 2l31.5 6q52 12 76 15q22 3 102 34q66 27 78 27q23 0 80 31t86 53q14 10 41 22q25 11 55 37q37 32 25.5 56.5t-84.5 62.5q-30 15 -85 23t-96 2q-45 -6 -59 -11.5t-39 -27.5q-34 -30 -51 -33q-13 -3 -41.5 -24.5
t-26.5 -26.5q2 -6 -12.5 -13t-24.5 -6t-13 -1.5t-9 -20.5zM274 674q-3 -8 -1.5 -9.5t10.5 -0.5q14 0 32 6t25 16q7 11 50 61.5t56 63.5q25 25 39 47q11 25 27 41q12 12 12 25q1 1 7 11.5l18 31.5t22 39q74 131 70 137q-1 1 -0.5 2.5t2.5 5.5q6 12 16 45.5t9 42.5
q-1 10 -9.5 14.5t-15.5 -0.5q-10 -3 -54 -54.5t-59 -78.5q-18 -33 -45 -71q-5 -7 -43 -68q-18 -29 -34 -45q-14 -14 -17 -23q0 -4 -6 -19.5t-21 -44.5t-34 -58q-15 -23 -23 -46q-7 -22 -18 -40q-14 -28 -15 -31z" />
    <glyph glyph-name="agrave" unicode="&#xe0;" horiz-adv-x="970" 
d="M41 14q-57 20 -81 65.5t-16.5 103.5t32.5 124.5t67 130.5t87 118.5t91.5 92.5t81.5 49q36 10 55.5 8t37.5 -11.5t30.5 -20t34.5 -18t49 -5.5q32 3 89.5 -38.5t49.5 -55.5q-28 -51 -42 -114.5t-13 -120t10 -104.5t25.5 -74.5t34.5 -22.5q49 11 128 53.5t171 118.5
q14 11 11 -4q-8 -37 -66 -117q-101 -136 -201 -166q-17 -5 -33 -6q-52 -1 -91 14.5t-63 43t-39.5 71t-22 90.5t-9.5 109q-34 -54 -75.5 -107.5t-98.5 -111.5t-119 -85.5t-115 -9.5zM381 565q-34 0 -107 -92.5t-131 -199.5t-55 -146t121 98q45 52 123.5 175t66.5 151
q-6 14 -18 14zM309 887q0 7 -1 16t-1 10q0 17 17.5 44.5t40.5 27.5q30 0 41 -27q3 -8 24 -38.5t31 -49.5q39 -72 39 -90q0 -20 -21 -20q-26 0 -88 43q-26 18 -76 61q-4 4 -4 8q-5 10 -2 15z" />
    <glyph glyph-name="aacute" unicode="&#xe1;" horiz-adv-x="970" 
d="M41 14q-57 20 -81 65.5t-16.5 103.5t32.5 124.5t67 130.5t87 118.5t91.5 92.5t81.5 49q36 10 55.5 8t37.5 -11.5t30.5 -20t34.5 -18t49 -5.5q32 3 89.5 -38.5t49.5 -55.5q-28 -51 -42 -114.5t-13 -120t10 -104.5t25.5 -74.5t34.5 -22.5q49 11 128 53.5t171 118.5
q14 11 11 -4q-8 -37 -66 -117q-101 -136 -201 -166q-17 -5 -33 -6q-52 -1 -91 14.5t-63 43t-39.5 71t-22 90.5t-9.5 109q-34 -54 -75.5 -107.5t-98.5 -111.5t-119 -85.5t-115 -9.5zM381 565q-34 0 -107 -92.5t-131 -199.5t-55 -146t121 98q45 52 123.5 175t66.5 151
q-6 14 -18 14zM410 788q-11 0 -17 6t-6 13q0 25 61.5 109.5t92.5 84.5q18 0 39 -30q18 -25 14 -41q0 -29 -8 -45q0 -1 -1 -3t-1 -3q-1 -1 -2 -3t-2 -2q-35 -27 -89 -56.5t-81 -29.5z" />
    <glyph glyph-name="acircumflex" unicode="&#xe2;" horiz-adv-x="970" 
d="M41 14q-57 20 -81 65.5t-16.5 103.5t32.5 124.5t67 130.5t87 118.5t91.5 92.5t81.5 49q36 10 55.5 8t37.5 -11.5t30.5 -20t34.5 -18t49 -5.5q32 3 89.5 -38.5t49.5 -55.5q-28 -51 -42 -114.5t-13 -120t10 -104.5t25.5 -74.5t34.5 -22.5q49 11 128 53.5t171 118.5
q14 11 11 -4q-8 -37 -66 -117q-101 -136 -201 -166q-17 -5 -33 -6q-52 -1 -91 14.5t-63 43t-39.5 71t-22 90.5t-9.5 109q-34 -54 -75.5 -107.5t-98.5 -111.5t-119 -85.5t-115 -9.5zM381 565q-34 0 -107 -92.5t-131 -199.5t-55 -146t121 98q45 52 123.5 175t66.5 151
q-6 14 -18 14zM373 836q-74 0 -74 45q0 8 8 16l4 4q15 34 43 70q8 10 26.5 31t25.5 30q16 19 53 19q31 0 54.5 -28t33.5 -62t10 -62q0 -19 8.5 -57t9.5 -56q0 -12 -10 -20q-16 -12 -33 -10q0 -2 -10 -2q-9 0 -18 6q-4 4 -4 6q-23 36 -35 80q-9 34 -21 72l-12 -31
q-19 -51 -59 -51z" />
    <glyph glyph-name="atilde" unicode="&#xe3;" horiz-adv-x="970" 
d="M41 14q-57 20 -81 65.5t-16.5 103.5t32.5 124.5t67 130.5t87 118.5t91.5 92.5t81.5 49q36 10 55.5 8t37.5 -11.5t30.5 -20t34.5 -18t49 -5.5q32 3 89.5 -38.5t49.5 -55.5q-28 -51 -42 -114.5t-13 -120t10 -104.5t25.5 -74.5t34.5 -22.5q49 11 128 53.5t171 118.5
q14 11 11 -4q-8 -37 -66 -117q-101 -136 -201 -166q-17 -5 -33 -6q-52 -1 -91 14.5t-63 43t-39.5 71t-22 90.5t-9.5 109q-34 -54 -75.5 -107.5t-98.5 -111.5t-119 -85.5t-115 -9.5zM381 565q-34 0 -107 -92.5t-131 -199.5t-55 -146t121 98q45 52 123.5 175t66.5 151
q-6 14 -18 14zM260 844q0 10 7 44.5t14 45.5q0 9 15 26.5t26 24.5l10 6l12 -6q8 -3 16 -8q6 -4 13 -4q17 -2 26 -15q35 -52 72 -69q12 0 25 8q8 4 28 25q4 4 12 12.5t11 11.5q12 12 18 15q2 2 13 2q14 0 24 -18.5t10 -33.5q0 -4 -4 -20q0 -4 -4 -12q0 -5 -2 -9q0 -8 -8 -20
l-14 -14q-7 -18 -29 -31q-8 -4 -10 -6q-2 0 -4 -2q-10 -17 -50 -17q-54 0 -116 76q-1 1 -3 2t-3 2q0 -1 -1.5 -4t-1.5 -4q-4 -20 -4 -33q0 -17 -11 -27t-28 -10q-21 0 -40 20.5t-19 41.5zM596 866l4 2q-2 0 -4 -2z" />
    <glyph glyph-name="adieresis" unicode="&#xe4;" horiz-adv-x="970" 
d="M41 14q-57 20 -81 65.5t-16.5 103.5t32.5 124.5t67 130.5t87 118.5t91.5 92.5t81.5 49q36 10 55.5 8t37.5 -11.5t30.5 -20t34.5 -18t49 -5.5q32 3 89.5 -38.5t49.5 -55.5q-28 -51 -42 -114.5t-13 -120t10 -104.5t25.5 -74.5t34.5 -22.5q49 11 128 53.5t171 118.5
q14 11 11 -4q-8 -37 -66 -117q-101 -136 -201 -166q-17 -5 -33 -6q-52 -1 -91 14.5t-63 43t-39.5 71t-22 90.5t-9.5 109q-34 -54 -75.5 -107.5t-98.5 -111.5t-119 -85.5t-115 -9.5zM381 565q-34 0 -107 -92.5t-131 -199.5t-55 -146t121 98q45 52 123.5 175t66.5 151
q-6 14 -18 14zM270 854q-11 14 -6 37q5 30 8 33q7 7 7 14q0 6 4 6q3 0 6 6q5 8 9.5 10t16.5 -2q14 -5 17 -2q5 6 19 -1.5t24 -22.5q25 -36 14 -49q-2 -2 -6 -23q-1 -10 -12.5 -30t-22.5 -31q-3 -3 -25.5 0t-27.5 6q-12 8 -12 20t-13 29zM463 829q-11 19 -8 33q5 21 10 33
q6 16 15.5 27.5t13.5 7.5q3 -3 8 2q7 7 29 -3.5t22 -21.5q0 -8 8 -8q4 -4 4 -8q-6 -58 -13 -77t-24 -19q-10 0 -10 -4q-2 -7 -12 2q-5 5 -29 12q-4 4 -14 24z" />
    </font>
</defs>
</svg>
